<svg xmlns="http://www.w3.org/2000/svg">
<defs>
<font
       font-weight="700"
       font-style="normal"
       class="str0"
       font-variant="normal"
       id="font3299"
       horiz-origin-x="0"
       horiz-origin-y="0"
       horiz-adv-x="90"
       vert-origin-x="45"
       vert-origin-y="90"
       vert-adv-y="90"
       style="font-style:normal;font-variant:normal;font-weight:700;stroke-width:0.66720003;stroke-linecap:round;stroke-linejoin:round">
      <font-face
         id="font-face3301"
         font-family="Arial" />
      <missing-glyph
         id="missing-glyph3303">
        <path
           id="path3305"
           d="M0 0z" />
      </missing-glyph>
      <glyph
         id="glyph3307"
         horiz-adv-x="277"
         unicode=" " />
      <glyph
         id="glyph3309"
         horiz-adv-x="277"
         unicode=",">
        <path
           id="path3311"
           d="M68.3336 137.166l137.166 0 0 -98.1661c0,-39.6666 -3.3335,-70.9999 -10.1669,-93.9999 -6.83336,-22.8336 -19.8329,-43.5001 -38.833,-61.6666 -19.0001,-18.3338 -43.1665,-32.6669 -72.4998,-43.0001l-26.8335 56.6659c27.6662,9.1669 47.3336,21.6673 58.9995,37.5003 11.834,16.0003 18.0002,37.833 18.6674,65.5001l-66.5001 0 0 137.166z" />
      </glyph>
      <glyph
         id="glyph3313"
         horiz-adv-x="500"
         unicode="”">
        <path
           id="path3315"
           d="M293 715.833l137.166 0 0 -98.667c0,-39.6666 -3.49987,-70.9999 -10.4996,-93.6663 -7.00061,-22.8336 -20.0001,-43.5001 -39.0002,-61.833 -19.1665,-18.3338 -43.1665,-32.8332 -71.9999,-43.1673l-26.9998 57.1668c27.4998,9.00053 46.9999,21.6673 58.8331,38.0003 11.9995,16.333 18.0002,38.0003 18.3329,65.0001l-65.8328 0 0 137.166zm-230.5 0l137.166 0 0 -98.667c0,-39.6666 -3.3335,-70.9999 -10.1669,-93.6663 -6.83336,-22.8336 -19.8329,-43.5001 -38.833,-61.833 -19.0001,-18.3338 -43.1665,-32.8332 -72.4998,-43.1673l-26.8335 57.1668c27.6662,9.00053 47.3336,21.6673 59.0004,38.0003 11.6659,16.333 17.9993,38.0003 18.4993,65.0001l-66.3328 0 0 137.166z" />
      </glyph>
      <glyph
         id="glyph3317"
         horiz-adv-x="500"
         unicode="“">
        <path
           id="path3319"
           d="M201.666 425.833l-137.166 0 0 98.167c0,39.6666 3.49987,70.9999 10.4996,93.9999 7.00061,22.8336 19.8337,43.5001 38.8339,61.6666 18.8329,18.3338 42.8329,32.5005 72.1662,43.0001l26.8335 -56.6668c-27.3334,-9.16602 -46.8336,-21.8328 -58.8331,-37.9994 -11.8332,-16.3339 -18.1666,-38.0003 -18.6665,-65.0001l66.3328 0 0 -137.167zm229 0l-137.166 0 0 98.167c0,40.0002 3.49987,71.3335 10.4996,94.1671 7.00061,22.8327 20.0001,43.3328 39.0002,61.4994 19.0001,18.3338 43.0001,32.5005 71.9999,43.0001l26.8335 -56.6668c-27.3334,-9.16602 -46.8336,-21.8328 -58.8331,-37.9994 -11.8332,-16.3339 -18.1666,-38.0003 -18.6665,-65.0001l66.3328 0 0 -137.167z" />
      </glyph>
      <glyph
         id="glyph3321"
         horiz-adv-x="666"
         unicode="E">
        <path
           id="path3323"
           d="M72.833 0l0 715.833 530.667 0 0 -121.166 -386.167 0 0 -158.667 359.334 0 0 -120.5 -359.334 0 0 -194.834 399.834 0 0 -120.666 -544.334 0z" />
      </glyph>
      <glyph
         id="glyph3325"
         horiz-adv-x="610"
         unicode="F">
        <path
           id="path3327"
           d="M73.6665 0l0 715.833 490.833 0 0 -121.166 -346.166 0 0 -169.333 298.833 0 0 -121.167 -298.833 0 0 -304.166 -144.667 0z" />
      </glyph>
      <glyph
         id="glyph3329"
         horiz-adv-x="722"
         unicode="N">
        <path
           id="path3331"
           d="M74.167 0l0 715.833 140.666 0 293 -478 0 478 134.334 0 0 -715.833 -145.167 0 -288.5 466.833 0 -466.833 -134.333 0z" />
      </glyph>
      <glyph
         id="glyph3333"
         horiz-adv-x="777"
         unicode="O">
        <path
           id="path3335"
           d="M43.5001 353.5c0,72.9998 10.8332,134.166 32.6669,183.666 16.333,36.3331 38.4994,69.1663 66.6664,98.167 28.167,28.8334 59.0004,50.3326 92.4999,64.3329 44.6664,19.0001 95.9998,28.3334 154.333,28.3334 105.5,0 189.833,-32.6669 253.167,-98.167 63.3329,-65.3329 94.9998,-156.333 94.9998,-272.833 0,-115.667 -31.4997,-206 -94.3335,-271.334 -62.833,-65.1665 -146.833,-97.8334 -251.833,-97.8334 -106.5,0 -191.167,32.5005 -254.001,97.3334 -62.833,65.0001 -94.1662,154.5 -94.1662,268.334zm148.833 4.83256c0,-80.9995 18.8338,-142.5 56.1668,-184.333 37.5003,-41.8338 85.0002,-62.6666 142.667,-62.6666 57.4995,0 104.833,20.6665 141.833,62.333 36.834,41.5002 55.3341,103.667 55.3341,186.667 0,81.9995 -18.0002,143.166 -53.8342,183.666 -35.9995,40.3329 -83.833,60.5003 -143.332,60.5003 -59.6667,0 -107.667,-20.5001 -144.167,-61.3339 -36.3331,-40.8329 -54.6669,-102.333 -54.6669,-184.834z" />
      </glyph>
      <glyph
         id="glyph3337"
         horiz-adv-x="722"
         unicode="H">
        <path
           id="path3339"
           d="M73.1671 0l0 715.833 144.666 0 0 -281.667 283.167 0 0 281.667 144.5 0 0 -715.833 -144.5 0 0 313 -283.167 0 0 -313 -144.666 0z" />
      </glyph>
      <glyph
         id="glyph3341"
         horiz-adv-x="277"
         unicode="I">
        <path
           id="path3343"
           d="M68.3336 0l0 715.833 144.5 0 0 -715.833 -144.5 0z" />
      </glyph>
      <glyph
         id="glyph3345"
         horiz-adv-x="722"
         unicode="A">
        <path
           id="path3347"
           d="M718.333 0l-157.333 0 -62.5002 162.666 -286.167 0 -59.0004 -162.666 -153.333 0 278.833 715.833 152.833 0 286.667 -715.833zm-266.167 283.167l-98.6661 265.667 -96.667 -265.667 195.333 0z" />
      </glyph>
      <glyph
         id="glyph3349"
         horiz-adv-x="610"
         unicode="Z">
        <path
           id="path3351"
           d="M10.667 0l0 130.334 376 464.333 -333.5 0 0 121.166 523.999 0 0 -112.333 -392.166 -482.833 407.333 0 0 -120.667 -581.666 0z" />
      </glyph>
      <glyph
         id="glyph3353"
         horiz-adv-x="722"
         unicode="U">
        <path
           id="path3355"
           d="M71.8332 715.833l144.5 0 0 -387.667c0,-61.4993 1.83335,-101.499 5.33373,-119.667 6.16627,-29.3326 21.0003,-52.8335 44.1666,-70.4997 23.3336,-17.8336 55.1667,-26.6667 95.5004,-26.6667 40.9999,0 71.9995,8.33322 92.8325,25.1669 20.834,16.6664 33.3339,37.3332 37.5005,61.6666 4.33292,24.4997 6.33356,64.9997 6.33356,121.666l0 396 144.5 0 0 -376c0,-86 -3.83398,-146.667 -11.6673,-182.167 -7.8333,-35.4998 -22.1665,-65.3333 -43.1658,-89.834 -21.0003,-24.3325 -49.1668,-43.833 -84.1667,-58.3325 -35.1672,-14.5005 -81.1672,-21.6666 -137.834,-21.6666 -68.3338,0 -120.166,7.8333 -155.5,23.6662 -35.3335,15.8329 -63.1664,36.3333 -83.6668,61.5003 -20.5004,25.166 -34.0001,51.6664 -40.5,79.3329 -9.50034,40.9999 -14.1669,101.5 -14.1669,181.667l0 381.833z" />
      </glyph>
      <glyph
         id="glyph3357"
         horiz-adv-x="666"
         unicode="Y">
        <path
           id="path3359"
           d="M260.667 0l0 301.333 -262.167 414.5 169.5 0 168.501 -283.167 165 283.167 166.5 0 -263.167 -415.5 0 -300.333 -144.166 0z" />
      </glyph>
      <glyph
         id="glyph3361"
         horiz-adv-x="722"
         unicode="R">
        <path
           id="path3363"
           d="M73.1666 0l0 715.833 304.334 0c76.4997,0 132,-6.49987 166.666,-19.3333 34.6663,-12.8334 62.5001,-35.6661 83.3332,-68.5001 20.833,-32.9993 31.1669,-70.4997 31.1669,-112.833 0,-53.667 -15.8329,-98.1663 -47.3334,-133.167 -31.4995,-34.8326 -78.833,-56.9991 -141.667,-65.9995 31.3332,-18.3335 57.1664,-38.333 77.5005,-60.1669 20.3331,-21.8329 47.6661,-60.4995 82.1661,-116.166l87.4998 -139.667 -172.833 0 -104.501 155.834c-37.1659,55.6666 -62.4991,90.6666 -76.1661,105.166 -13.6669,14.5005 -28.1664,24.3334 -43.5004,29.8335 -15.333,5.33373 -39.5001,8.00059 -72.833,8.00059l-29.1663 0 0 -298.834 -144.667 0zm144.667 413.166l106.833 0c69.3336,0 112.667,2.83318 129.999,8.66682 17.1673,5.83364 30.667,16.0002 40.5,30.3334 9.66762,14.3332 14.6668,32.1667 14.6668,53.667 0,24.1661 -6.49987,43.4994 -19.3333,58.3335 -12.8334,14.8331 -30.9996,24.1661 -54.4995,28.1664 -11.6663,1.49975 -46.8335,2.33326 -105.5,2.33326l-112.667 0 0 -181.5z" />
      </glyph>
      <glyph
         id="glyph3365"
         horiz-adv-x="610"
         unicode="T">
        <path
           id="path3367"
           d="M233.833 0l0 594.666 -212.333 0 0 121.167 568.834 0 0 -121.167 -211.833 0 0 -594.666 -144.667 0z" />
      </glyph>
      <glyph
         id="glyph3369"
         horiz-adv-x="666"
         unicode="P">
        <path
           id="path3371"
           d="M72.8334 0l0 715.833 231.833 0c87.8329,0 145.166,-3.66623 171.833,-10.8332 41.0002,-10.6668 75.4997,-34.0004 103.167,-69.9999 27.6662,-36.0004 41.5002,-82.5003 41.5002,-139.334 0,-44.0001 -8.00057,-80.9995 -24,-110.833 -16.0003,-30.0006 -36.1667,-53.5006 -60.8339,-70.6672 -24.4999,-17.0002 -49.4998,-28.3334 -74.8334,-33.8332 -34.4995,-6.83336 -84.4994,-10.3332 -149.999,-10.3332l-94.1671 0 0 -270 -144.5 0zm144.5 594.666l0 -202.999 79.0005 0c56.9996,0 95.1662,3.66623 114.333,11.1659 19.1674,7.50059 34.1668,19.1674 45.1673,35.1668 10.8332,16.0003 16.333,34.5004 16.333,55.6669 0,25.9999 -7.66696,47.4999 -23,64.5001 -15.1667,16.833 -34.6668,27.4998 -57.9995,31.6669 -17.3338,3.33262 -52.0006,4.83256 -104,4.83256l-69.8336 0z" />
      </glyph>
    </font>
    <style
       id="style3373"
       type="text/css">
   
    @font-face { font-family:&quot;Arial&quot;;src:url(&quot;#FontID0&quot;) format(svg)}
    .str5 {stroke:#1F1A17;stroke-width:0.0762}
    .str1 {stroke:#1F1A17;stroke-width:0.0762;stroke-linecap:round;stroke-linejoin:round}
    .str0 {stroke-width:0.6672;stroke-linecap:round;stroke-linejoin:round}
    .str2 {stroke-width:0.7411;stroke-linecap:round;stroke-linejoin:round}
    .str3 {stroke-width:0.7414;stroke-linecap:round;stroke-linejoin:round}
    .str4 {stroke-width:13.5001}
    .str6 {stroke:#1F1A17;stroke-width:0.0762}
    .fil0 {fill:#1F1A17}
    .fil3 {fill:#72706F}
    .fil4 {fill:#AAA9A9}
    .fil2 {fill:white}
    .fil1 {fill:#1F1A17;fill-rule:nonzero}
    .fnt3 {font-weight:bold;font-size:5.6444;font-family:'Arial'}
    .fnt2 {font-weight:bold;font-size:102.784;font-family:'Arial'}
    .fnt1 {font-weight:bold;font-size:102.817;font-family:'Arial'}
    .fnt0 {font-weight:bold;font-size:114.204;font-family:'Arial'}
   
  </style>
    <font
       font-weight="700"
       font-style="normal"
       class="str0"
       font-variant="normal"
       id="font3375"
       horiz-origin-x="0"
       horiz-origin-y="0"
       horiz-adv-x="90"
       vert-origin-x="45"
       vert-origin-y="90"
       vert-adv-y="90"
       style="font-style:normal;font-variant:normal;font-weight:700;stroke-width:0.66720003;stroke-linecap:round;stroke-linejoin:round">
      <font-face
         id="font-face3377"
         font-family="Arial" />
      <missing-glyph
         id="missing-glyph3379">
        <path
           id="path3381"
           d="M0 0z" />
      </missing-glyph>
      <glyph
         id="glyph3383"
         horiz-adv-x="277"
         unicode=" " />
      <glyph
         id="glyph3385"
         horiz-adv-x="277"
         unicode=",">
        <path
           id="path3387"
           d="M68.3336 137.166l137.166 0 0 -98.1661c0,-39.6666 -3.3335,-70.9999 -10.1669,-93.9999 -6.83336,-22.8336 -19.8329,-43.5001 -38.833,-61.6666 -19.0001,-18.3338 -43.1665,-32.6669 -72.4998,-43.0001l-26.8335 56.6659c27.6662,9.1669 47.3336,21.6673 58.9995,37.5003 11.834,16.0003 18.0002,37.833 18.6674,65.5001l-66.5001 0 0 137.166z" />
      </glyph>
      <glyph
         id="glyph3389"
         horiz-adv-x="500"
         unicode="”">
        <path
           id="path3391"
           d="M293 715.833l137.166 0 0 -98.667c0,-39.6666 -3.49987,-70.9999 -10.4996,-93.6663 -7.00061,-22.8336 -20.0001,-43.5001 -39.0002,-61.833 -19.1665,-18.3338 -43.1665,-32.8332 -71.9999,-43.1673l-26.9998 57.1668c27.4998,9.00053 46.9999,21.6673 58.8331,38.0003 11.9995,16.333 18.0002,38.0003 18.3329,65.0001l-65.8328 0 0 137.166zm-230.5 0l137.166 0 0 -98.667c0,-39.6666 -3.3335,-70.9999 -10.1669,-93.6663 -6.83336,-22.8336 -19.8329,-43.5001 -38.833,-61.833 -19.0001,-18.3338 -43.1665,-32.8332 -72.4998,-43.1673l-26.8335 57.1668c27.6662,9.00053 47.3336,21.6673 59.0004,38.0003 11.6659,16.333 17.9993,38.0003 18.4993,65.0001l-66.3328 0 0 137.166z" />
      </glyph>
      <glyph
         id="glyph3393"
         horiz-adv-x="500"
         unicode="“">
        <path
           id="path3395"
           d="M201.666 425.833l-137.166 0 0 98.167c0,39.6666 3.49987,70.9999 10.4996,93.9999 7.00061,22.8336 19.8337,43.5001 38.8339,61.6666 18.8329,18.3338 42.8329,32.5005 72.1662,43.0001l26.8335 -56.6668c-27.3334,-9.16602 -46.8336,-21.8328 -58.8331,-37.9994 -11.8332,-16.3339 -18.1666,-38.0003 -18.6665,-65.0001l66.3328 0 0 -137.167zm229 0l-137.166 0 0 98.167c0,40.0002 3.49987,71.3335 10.4996,94.1671 7.00061,22.8327 20.0001,43.3328 39.0002,61.4994 19.0001,18.3338 43.0001,32.5005 71.9999,43.0001l26.8335 -56.6668c-27.3334,-9.16602 -46.8336,-21.8328 -58.8331,-37.9994 -11.8332,-16.3339 -18.1666,-38.0003 -18.6665,-65.0001l66.3328 0 0 -137.167z" />
      </glyph>
      <glyph
         id="glyph3397"
         horiz-adv-x="610"
         unicode="L">
        <path
           id="path3399"
           d="M76.6069 0.0354333l0.0177167 709.712 144.515 0.141733 0.0885834 -589.327 359.276 0 -0.141733 -120.615 -503.756 0.0885834z" />
      </glyph>
      <glyph
         id="glyph3401"
         horiz-adv-x="666"
         unicode="E">
        <path
           id="path3403"
           d="M72.6915 -0.0354333l-0.0354333 715.754 530.792 0.0354333 0.05315 -121.164 -386.224 0.0177167 -0.05315 -158.582 359.383 0.05315 -0.0354333 -120.633 -359.383 -0.0708667 0.1063 -194.742 399.794 0.0354333 -0.0354333 -120.651 -544.363 -0.05315z" />
      </glyph>
      <glyph
         id="glyph3405"
         horiz-adv-x="610"
         unicode="F">
        <path
           id="path3407"
           d="M73.6665 0l0 715.833 490.833 0 0 -121.166 -346.166 0 0 -169.333 298.833 0 0 -121.167 -298.833 0 0 -304.166 -144.667 0z" />
      </glyph>
      <glyph
         id="glyph3409"
         horiz-adv-x="722"
         unicode="N">
        <path
           id="path3411"
           d="M74.2506 0.0708667l-0.0177167 715.754 140.6 -0.0177167 292.963 -478.084 -0.0177167 478.12 134.222 -0.0354333 0.0177167 -715.754 -144.958 -0.0177167 -288.622 466.728 0.0354333 -466.728 -134.222 0.0354333z" />
      </glyph>
      <glyph
         id="glyph3413"
         horiz-adv-x="777"
         unicode="O">
        <path
           id="path3415"
           d="M43.4059 353.465c0.05315,72.8864 11.0021,134.151 32.7936,183.669 16.2816,36.4964 38.4098,69.095 66.5261,98.0972 28.2581,28.8959 59.0674,50.4394 92.6051,64.5064 44.6106,18.886 96.0952,28.2049 154.259,28.2581 105.556,-0.0354333 189.976,-32.6695 253.295,-98.1504 63.1954,-65.3745 94.8551,-156.35 94.8728,-272.819 0.0708667,-115.743 -31.4648,-206.063 -94.235,-271.402 -62.6993,-65.1796 -146.871,-97.8315 -251.913,-97.9023 -106.53,0.0354333 -191.021,32.5278 -253.862,97.5126 -62.8588,64.9848 -94.3413,154.295 -94.3413,268.23zm149.015 4.96067c-0.0885834,-81.0361 18.7797,-142.531 56.0556,-184.377 37.4885,-41.7759 84.9869,-62.7347 142.548,-62.6993 57.7209,-0.0708667 105.007,20.7108 142.017,62.2387 36.7798,41.4747 55.3823,103.802 55.3115,186.875 0,81.851 -17.9647,143.204 -53.8764,183.456 -36.0534,40.3232 -83.7467,60.6087 -143.399,60.6796 -59.5812,-0.15945 -107.593,-20.5159 -144.037,-61.4237 -36.4432,-40.9078 -54.7445,-102.438 -54.6205,-184.749z" />
      </glyph>
      <glyph
         id="glyph3417"
         horiz-adv-x="722"
         unicode="H">
        <path
           id="path3419"
           d="M73.1699 0.05315l0.141733 715.399 144.391 0.0885834 -0.05315 -281.731 283.095 0.124017 -0.05315 281.518 144.55 0.141733 -0.0708667 -715.559 -144.391 -0.0708667 0.0177167 312.947 -283.095 -0.124017 -0.0708667 -312.806 -144.462 0.0708667z" />
      </glyph>
      <glyph
         id="glyph3421"
         horiz-adv-x="277"
         unicode="I">
        <path
           id="path3423"
           d="M68.3336 0l0 715.833 144.5 0 0 -715.833 -144.5 0z" />
      </glyph>
      <glyph
         id="glyph3425"
         horiz-adv-x="722"
         unicode="A">
        <path
           id="path3427"
           d="M718.163 0.05315l-157.218 -0.124017 -62.469 162.604 -286.124 0 -59.032 -162.533 -153.32 0 278.843 715.825 152.806 -0.1063 286.514 -715.665zm-266.016 283.112l-98.6642 265.644 -96.733 -265.626 195.397 -0.0177167z" />
      </glyph>
      <glyph
         id="glyph3429"
         horiz-adv-x="610"
         unicode="Z">
        <path
           id="path3431"
           d="M10.667 0l0 130.334 376 464.333 -333.5 0 0 121.166 523.999 0 0 -112.333 -392.166 -482.833 407.333 0 0 -120.667 -581.666 0z" />
      </glyph>
      <glyph
         id="glyph3433"
         horiz-adv-x="722"
         unicode="U">
        <path
           id="path3435"
           d="M71.8332 715.833l144.5 0 0 -387.667c0,-61.4993 1.83335,-101.499 5.33373,-119.667 6.16627,-29.3326 21.0003,-52.8335 44.1666,-70.4997 23.3336,-17.8336 55.1667,-26.6667 95.5004,-26.6667 40.9999,0 71.9995,8.33322 92.8325,25.1669 20.834,16.6664 33.3339,37.3332 37.5005,61.6666 4.33292,24.4997 6.33356,64.9997 6.33356,121.666l0 396 144.5 0 0 -376c0,-86 -3.83398,-146.667 -11.6673,-182.167 -7.8333,-35.4998 -22.1665,-65.3333 -43.1658,-89.834 -21.0003,-24.3325 -49.1668,-43.833 -84.1667,-58.3325 -35.1672,-14.5005 -81.1672,-21.6666 -137.834,-21.6666 -68.3338,0 -120.166,7.8333 -155.5,23.6662 -35.3335,15.8329 -63.1664,36.3333 -83.6668,61.5003 -20.5004,25.166 -34.0001,51.6664 -40.5,79.3329 -9.50034,40.9999 -14.1669,101.5 -14.1669,181.667l0 381.833z" />
      </glyph>
      <glyph
         id="glyph3437"
         horiz-adv-x="666"
         unicode="Y">
        <path
           id="path3439"
           d="M260.667 0l0 301.333 -262.167 414.5 169.5 0 168.501 -283.167 165 283.167 166.5 0 -263.167 -415.5 0 -300.333 -144.166 0z" />
      </glyph>
      <glyph
         id="glyph3441"
         horiz-adv-x="722"
         unicode="R">
        <path
           id="path3443"
           d="M73.1666 0l0 715.833 304.334 0c76.4997,0 132,-6.49987 166.666,-19.3333 34.6663,-12.8334 62.5001,-35.6661 83.3332,-68.5001 20.833,-32.9993 31.1669,-70.4997 31.1669,-112.833 0,-53.667 -15.8329,-98.1663 -47.3334,-133.167 -31.4995,-34.8326 -78.833,-56.9991 -141.667,-65.9995 31.3332,-18.3335 57.1664,-38.333 77.5005,-60.1669 20.3331,-21.8329 47.6661,-60.4995 82.1661,-116.166l87.4998 -139.667 -172.833 0 -104.501 155.834c-37.1659,55.6666 -62.4991,90.6666 -76.1661,105.166 -13.6669,14.5005 -28.1664,24.3334 -43.5004,29.8335 -15.333,5.33373 -39.5001,8.00059 -72.833,8.00059l-29.1663 0 0 -298.834 -144.667 0zm144.667 413.166l106.833 0c69.3336,0 112.667,2.83318 129.999,8.66682 17.1673,5.83364 30.667,16.0002 40.5,30.3334 9.66762,14.3332 14.6668,32.1667 14.6668,53.667 0,24.1661 -6.49987,43.4994 -19.3333,58.3335 -12.8334,14.8331 -30.9996,24.1661 -54.4995,28.1664 -11.6663,1.49975 -46.8335,2.33326 -105.5,2.33326l-112.667 0 0 -181.5z" />
      </glyph>
      <glyph
         id="glyph3445"
         horiz-adv-x="610"
         unicode="T">
        <path
           id="path3447"
           d="M233.825 0.0708667l0.0354333 594.642 -212.458 -0.1063 0.15945 121.164 568.617 -0.0708667 0 -121.005 -211.785 -0.0708667 -0.0354333 -594.66 -144.533 0.1063z" />
      </glyph>
      <glyph
         id="glyph3449"
         horiz-adv-x="666"
         unicode="P">
        <path
           id="path3451"
           d="M72.7447 -0.0708667l0 715.931 231.947 -0.0885834c87.8038,0.0177167 145.153,-3.5079 171.887,-10.754 40.9964,-10.6123 75.2959,-33.9806 103.04,-69.9454 27.5849,-35.9826 41.5279,-82.4534 41.4747,-139.43 -0.0708667,-43.9196 -7.91935,-80.9475 -23.8644,-110.942 -15.9804,-29.8349 -36.2838,-53.4158 -60.7859,-70.5655 -24.697,-17.008 -49.6421,-28.3467 -75.0478,-33.8743 -34.4766,-6.8032 -84.3845,-10.2048 -149.919,-10.2225l-94.1818 -0.0177167 0.05315 -269.967 -144.604 -0.124017zm144.621 594.713l-0.1063 -203.122 79.0872 0.1063c56.9945,-0.05315 95.1385,3.79137 114.29,11.1615 19.1517,7.5473 34.1932,19.1872 45.2307,35.2562 10.9135,15.8919 16.3348,34.4058 16.2993,55.5063 -0.0708667,26.1498 -7.68904,47.6224 -22.8722,64.471 -15.3604,16.9903 -34.7247,27.514 -58.1284,31.766 -17.2915,3.38388 -51.9807,4.92524 -104.103,4.97839l-69.6974 -0.124017z" />
      </glyph>
    </font>
    <style
       id="style3453"
       type="text/css">
   
    .fil0 {fill:#1F1A17}
    .fil2 {fill:#969594}
    .fil3 {fill:#C2C1C1}
    .fil1 {fill:white}
   
  </style>
    <style
       id="style3455"
       type="text/css">
   
    @font-face { font-family:&quot;Arial&quot;;src:url(&quot;#FontID0&quot;) format(svg)}
    .str5 {stroke:#1F1A17;stroke-width:0.0762}
    .str1 {stroke:#1F1A17;stroke-width:0.0762;stroke-linecap:round;stroke-linejoin:round}
    .str0 {stroke-width:0.6672;stroke-linecap:round;stroke-linejoin:round}
    .str2 {stroke-width:0.7411;stroke-linecap:round;stroke-linejoin:round}
    .str3 {stroke-width:0.7414;stroke-linecap:round;stroke-linejoin:round}
    .str4 {stroke-width:13.5001}
    .fil5 {fill:none;fill-rule:nonzero}
    .fil0 {fill:#1F1A17}
    .fil3 {fill:#72706F}
    .fil4 {fill:#AAA9A9}
    .fil2 {fill:white}
    .fil1 {fill:#1F1A17;fill-rule:nonzero}
    .fnt3 {font-weight:bold;font-size:5.6444;font-family:'Arial'}
    .fnt2 {font-weight:bold;font-size:102.784;font-family:'Arial'}
    .fnt1 {font-weight:bold;font-size:102.817;font-family:'Arial'}
    .fnt0 {font-weight:bold;font-size:114.204;font-family:'Arial'}
   
  </style>
    <font
       font-weight="700"
       font-style="normal"
       class="str0"
       font-variant="normal"
       id="font3457"
       horiz-origin-x="0"
       horiz-origin-y="0"
       horiz-adv-x="90"
       vert-origin-x="45"
       vert-origin-y="90"
       vert-adv-y="90"
       style="font-style:normal;font-variant:normal;font-weight:700;stroke-width:0.66720003;stroke-linecap:round;stroke-linejoin:round">
      <font-face
         id="font-face3459"
         font-family="Arial" />
      <missing-glyph
         id="missing-glyph3461">
        <path
           id="path3463"
           d="M0 0z" />
      </missing-glyph>
      <glyph
         id="glyph3465"
         horiz-adv-x="277"
         unicode=" " />
      <glyph
         id="glyph3467"
         horiz-adv-x="277"
         unicode=",">
        <path
           id="path3469"
           d="M68.3336 137.166l137.166 0 0 -98.1661c0,-39.6666 -3.3335,-70.9999 -10.1669,-93.9999 -6.83336,-22.8336 -19.8329,-43.5001 -38.833,-61.6666 -19.0001,-18.3338 -43.1665,-32.6669 -72.4998,-43.0001l-26.8335 56.6659c27.6662,9.1669 47.3336,21.6673 58.9995,37.5003 11.834,16.0003 18.0002,37.833 18.6674,65.5001l-66.5001 0 0 137.166z" />
      </glyph>
      <glyph
         id="glyph3471"
         horiz-adv-x="500"
         unicode="”">
        <path
           id="path3473"
           d="M293 715.833l137.166 0 0 -98.667c0,-39.6666 -3.49987,-70.9999 -10.4996,-93.6663 -7.00061,-22.8336 -20.0001,-43.5001 -39.0002,-61.833 -19.1665,-18.3338 -43.1665,-32.8332 -71.9999,-43.1673l-26.9998 57.1668c27.4998,9.00053 46.9999,21.6673 58.8331,38.0003 11.9995,16.333 18.0002,38.0003 18.3329,65.0001l-65.8328 0 0 137.166zm-230.5 0l137.166 0 0 -98.667c0,-39.6666 -3.3335,-70.9999 -10.1669,-93.6663 -6.83336,-22.8336 -19.8329,-43.5001 -38.833,-61.833 -19.0001,-18.3338 -43.1665,-32.8332 -72.4998,-43.1673l-26.8335 57.1668c27.6662,9.00053 47.3336,21.6673 59.0004,38.0003 11.6659,16.333 17.9993,38.0003 18.4993,65.0001l-66.3328 0 0 137.166z" />
      </glyph>
      <glyph
         id="glyph3475"
         horiz-adv-x="500"
         unicode="“">
        <path
           id="path3477"
           d="M201.666 425.833l-137.166 0 0 98.167c0,39.6666 3.49987,70.9999 10.4996,93.9999 7.00061,22.8336 19.8337,43.5001 38.8339,61.6666 18.8329,18.3338 42.8329,32.5005 72.1662,43.0001l26.8335 -56.6668c-27.3334,-9.16602 -46.8336,-21.8328 -58.8331,-37.9994 -11.8332,-16.3339 -18.1666,-38.0003 -18.6665,-65.0001l66.3328 0 0 -137.167zm229 0l-137.166 0 0 98.167c0,40.0002 3.49987,71.3335 10.4996,94.1671 7.00061,22.8327 20.0001,43.3328 39.0002,61.4994 19.0001,18.3338 43.0001,32.5005 71.9999,43.0001l26.8335 -56.6668c-27.3334,-9.16602 -46.8336,-21.8328 -58.8331,-37.9994 -11.8332,-16.3339 -18.1666,-38.0003 -18.6665,-65.0001l66.3328 0 0 -137.167z" />
      </glyph>
      <glyph
         id="glyph3479"
         horiz-adv-x="610"
         unicode="L">
        <path
           id="path3481"
           d="M76.6069 0.0354333l0.0177167 709.712 144.515 0.141733 0.0885834 -589.327 359.276 0 -0.141733 -120.615 -503.756 0.0885834z" />
      </glyph>
      <glyph
         id="glyph3483"
         horiz-adv-x="666"
         unicode="E">
        <path
           id="path3485"
           d="M72.6915 -0.0354333l-0.0354333 715.754 530.792 0.0354333 0.05315 -121.164 -386.224 0.0177167 -0.05315 -158.582 359.383 0.05315 -0.0354333 -120.633 -359.383 -0.0708667 0.1063 -194.742 399.794 0.0354333 -0.0354333 -120.651 -544.363 -0.05315z" />
      </glyph>
      <glyph
         id="glyph3487"
         horiz-adv-x="610"
         unicode="F">
        <path
           id="path3489"
           d="M73.6665 0l0 715.833 490.833 0 0 -121.166 -346.166 0 0 -169.333 298.833 0 0 -121.167 -298.833 0 0 -304.166 -144.667 0z" />
      </glyph>
      <glyph
         id="glyph3491"
         horiz-adv-x="722"
         unicode="N">
        <path
           id="path3493"
           d="M74.2506 0.0708667l-0.0177167 715.754 140.6 -0.0177167 292.963 -478.084 -0.0177167 478.12 134.222 -0.0354333 0.0177167 -715.754 -144.958 -0.0177167 -288.622 466.728 0.0354333 -466.728 -134.222 0.0354333z" />
      </glyph>
      <glyph
         id="glyph3495"
         horiz-adv-x="777"
         unicode="O">
        <path
           id="path3497"
           d="M43.4059 353.465c0.05315,72.8864 11.0021,134.151 32.7936,183.669 16.2816,36.4964 38.4098,69.095 66.5261,98.0972 28.2581,28.8959 59.0674,50.4394 92.6051,64.5064 44.6106,18.886 96.0952,28.2049 154.259,28.2581 105.556,-0.0354333 189.976,-32.6695 253.295,-98.1504 63.1954,-65.3745 94.8551,-156.35 94.8728,-272.819 0.0708667,-115.743 -31.4648,-206.063 -94.235,-271.402 -62.6993,-65.1796 -146.871,-97.8315 -251.913,-97.9023 -106.53,0.0354333 -191.021,32.5278 -253.862,97.5126 -62.8588,64.9848 -94.3413,154.295 -94.3413,268.23zm149.015 4.96067c-0.0885834,-81.0361 18.7797,-142.531 56.0556,-184.377 37.4885,-41.7759 84.9869,-62.7347 142.548,-62.6993 57.7209,-0.0708667 105.007,20.7108 142.017,62.2387 36.7798,41.4747 55.3823,103.802 55.3115,186.875 0,81.851 -17.9647,143.204 -53.8764,183.456 -36.0534,40.3232 -83.7467,60.6087 -143.399,60.6796 -59.5812,-0.15945 -107.593,-20.5159 -144.037,-61.4237 -36.4432,-40.9078 -54.7445,-102.438 -54.6205,-184.749z" />
      </glyph>
      <glyph
         id="glyph3499"
         horiz-adv-x="722"
         unicode="H">
        <path
           id="path3501"
           d="M73.1699 0.05315l0.141733 715.399 144.391 0.0885834 -0.05315 -281.731 283.095 0.124017 -0.05315 281.518 144.55 0.141733 -0.0708667 -715.559 -144.391 -0.0708667 0.0177167 312.947 -283.095 -0.124017 -0.0708667 -312.806 -144.462 0.0708667z" />
      </glyph>
      <glyph
         id="glyph3503"
         horiz-adv-x="277"
         unicode="I">
        <path
           id="path3505"
           d="M68.3336 0l0 715.833 144.5 0 0 -715.833 -144.5 0z" />
      </glyph>
      <glyph
         id="glyph3507"
         horiz-adv-x="722"
         unicode="A">
        <path
           id="path3509"
           d="M718.163 0.05315l-157.218 -0.124017 -62.469 162.604 -286.124 0 -59.032 -162.533 -153.32 0 278.843 715.825 152.806 -0.1063 286.514 -715.665zm-266.016 283.112l-98.6642 265.644 -96.733 -265.626 195.397 -0.0177167z" />
      </glyph>
      <glyph
         id="glyph3511"
         horiz-adv-x="610"
         unicode="Z">
        <path
           id="path3513"
           d="M10.667 0l0 130.334 376 464.333 -333.5 0 0 121.166 523.999 0 0 -112.333 -392.166 -482.833 407.333 0 0 -120.667 -581.666 0z" />
      </glyph>
      <glyph
         id="glyph3515"
         horiz-adv-x="722"
         unicode="U">
        <path
           id="path3517"
           d="M71.8332 715.833l144.5 0 0 -387.667c0,-61.4993 1.83335,-101.499 5.33373,-119.667 6.16627,-29.3326 21.0003,-52.8335 44.1666,-70.4997 23.3336,-17.8336 55.1667,-26.6667 95.5004,-26.6667 40.9999,0 71.9995,8.33322 92.8325,25.1669 20.834,16.6664 33.3339,37.3332 37.5005,61.6666 4.33292,24.4997 6.33356,64.9997 6.33356,121.666l0 396 144.5 0 0 -376c0,-86 -3.83398,-146.667 -11.6673,-182.167 -7.8333,-35.4998 -22.1665,-65.3333 -43.1658,-89.834 -21.0003,-24.3325 -49.1668,-43.833 -84.1667,-58.3325 -35.1672,-14.5005 -81.1672,-21.6666 -137.834,-21.6666 -68.3338,0 -120.166,7.8333 -155.5,23.6662 -35.3335,15.8329 -63.1664,36.3333 -83.6668,61.5003 -20.5004,25.166 -34.0001,51.6664 -40.5,79.3329 -9.50034,40.9999 -14.1669,101.5 -14.1669,181.667l0 381.833z" />
      </glyph>
      <glyph
         id="glyph3519"
         horiz-adv-x="666"
         unicode="Y">
        <path
           id="path3521"
           d="M260.667 0l0 301.333 -262.167 414.5 169.5 0 168.501 -283.167 165 283.167 166.5 0 -263.167 -415.5 0 -300.333 -144.166 0z" />
      </glyph>
      <glyph
         id="glyph3523"
         horiz-adv-x="722"
         unicode="R">
        <path
           id="path3525"
           d="M73.1666 0l0 715.833 304.334 0c76.4997,0 132,-6.49987 166.666,-19.3333 34.6663,-12.8334 62.5001,-35.6661 83.3332,-68.5001 20.833,-32.9993 31.1669,-70.4997 31.1669,-112.833 0,-53.667 -15.8329,-98.1663 -47.3334,-133.167 -31.4995,-34.8326 -78.833,-56.9991 -141.667,-65.9995 31.3332,-18.3335 57.1664,-38.333 77.5005,-60.1669 20.3331,-21.8329 47.6661,-60.4995 82.1661,-116.166l87.4998 -139.667 -172.833 0 -104.501 155.834c-37.1659,55.6666 -62.4991,90.6666 -76.1661,105.166 -13.6669,14.5005 -28.1664,24.3334 -43.5004,29.8335 -15.333,5.33373 -39.5001,8.00059 -72.833,8.00059l-29.1663 0 0 -298.834 -144.667 0zm144.667 413.166l106.833 0c69.3336,0 112.667,2.83318 129.999,8.66682 17.1673,5.83364 30.667,16.0002 40.5,30.3334 9.66762,14.3332 14.6668,32.1667 14.6668,53.667 0,24.1661 -6.49987,43.4994 -19.3333,58.3335 -12.8334,14.8331 -30.9996,24.1661 -54.4995,28.1664 -11.6663,1.49975 -46.8335,2.33326 -105.5,2.33326l-112.667 0 0 -181.5z" />
      </glyph>
      <glyph
         id="glyph3527"
         horiz-adv-x="610"
         unicode="T">
        <path
           id="path3529"
           d="M233.825 0.0708667l0.0354333 594.642 -212.458 -0.1063 0.15945 121.164 568.617 -0.0708667 0 -121.005 -211.785 -0.0708667 -0.0354333 -594.66 -144.533 0.1063z" />
      </glyph>
      <glyph
         id="glyph3531"
         horiz-adv-x="666"
         unicode="P">
        <path
           id="path3533"
           d="M72.7447 -0.0708667l0 715.931 231.947 -0.0885834c87.8038,0.0177167 145.153,-3.5079 171.887,-10.754 40.9964,-10.6123 75.2959,-33.9806 103.04,-69.9454 27.5849,-35.9826 41.5279,-82.4534 41.4747,-139.43 -0.0708667,-43.9196 -7.91935,-80.9475 -23.8644,-110.942 -15.9804,-29.8349 -36.2838,-53.4158 -60.7859,-70.5655 -24.697,-17.008 -49.6421,-28.3467 -75.0478,-33.8743 -34.4766,-6.8032 -84.3845,-10.2048 -149.919,-10.2225l-94.1818 -0.0177167 0.05315 -269.967 -144.604 -0.124017zm144.621 594.713l-0.1063 -203.122 79.0872 0.1063c56.9945,-0.05315 95.1385,3.79137 114.29,11.1615 19.1517,7.5473 34.1932,19.1872 45.2307,35.2562 10.9135,15.8919 16.3348,34.4058 16.2993,55.5063 -0.0708667,26.1498 -7.68904,47.6224 -22.8722,64.471 -15.3604,16.9903 -34.7247,27.514 -58.1284,31.766 -17.2915,3.38388 -51.9807,4.92524 -104.103,4.97839l-69.6974 -0.124017z" />
      </glyph>
    </font>
    <style
       id="style3535"
       type="text/css">
   
    @font-face { font-family:&quot;Arial Black&quot;;src:url(&quot;#FontID0&quot;) format(svg)}
    .str1 {stroke:#1F1A17;stroke-width:0.0762}
    .str0 {stroke:#838281;stroke-width:0.0762}
    .fil0 {fill:#1F1A17}
    .fil3 {fill:#838281}
    .fil2 {fill:#131516}
    .fil1 {fill:white}
    .fnt0 {font-weight:normal;font-size:28.2893;font-family:'Arial Black'}
   
  </style>
    <font
       font-weight="400"
       font-style="normal"
       font-variant="normal"
       id="font3537"
       horiz-origin-x="0"
       horiz-origin-y="0"
       horiz-adv-x="90"
       vert-origin-x="45"
       vert-origin-y="90"
       vert-adv-y="90"
       style="font-style:normal;font-variant:normal;font-weight:400">
      <font-face
         id="font-face3539"
         font-family="Arial Black" />
      <missing-glyph
         id="missing-glyph3541">
        <path
           id="path3543"
           d="M0 0z" />
      </missing-glyph>
      <glyph
         id="glyph3545"
         horiz-adv-x="363"
         unicode=" " />
      <glyph
         id="glyph3547"
         horiz-adv-x="786"
         unicode="E">
        <path
           id="path3549"
           d="M79.1748 779.754l645.788 -0.0424189 0.00706981 -166.409 -404.227 0.0459538 -0.0212094 -124.001 374.976 0.0636283 0.00706981 -159.064 -374.979 -0.0636283 -0.0353491 -153.648 415.949 -0.169675 -0.0989774 -176.455 -657.277 -0.113117 -0.0883726 779.857z" />
      </glyph>
      <glyph
         id="glyph3551"
         horiz-adv-x="423"
         unicode="I">
        <path
           id="path3553"
           d="M89.3271 779.726l241.455 -0.127257 0.0106047 -779.592 -241.537 -0.0353491 0.0706981 779.754z" />
      </glyph>
      <glyph
         id="glyph3555"
         horiz-adv-x="907"
         unicode="G">
        <path
           id="path3557"
           d="M471.786 282.418l0.144931 162.383 372.24 -0.0530236 0.038884 -332.419c-71.2884,-48.6368 -134.305,-81.7023 -189.057,-99.3839 -54.9254,-17.4872 -119.763,-26.275 -195.038,-26.1477 -92.565,-0.0600934 -167.933,15.7127 -226.287,47.3182 -58.3648,31.4288 -103.537,78.5315 -135.726,140.954 -32.0086,62.4158 -48.0782,133.998 -48.0217,214.915 -0.0848377,85.1099 17.4306,159.113 52.5499,222.013 35.1228,62.8966 86.5486,110.756 154.267,143.393 52.9706,25.2286 123.997,37.6927 213.289,37.7387 86.1951,0.0282792 150.711,-7.7167 193.349,-23.4081 42.8324,-15.5182 78.2946,-39.7429 106.401,-72.4938 28.2792,-32.9418 49.3826,-74.4204 63.653,-124.81l-232.392 -41.468c-9.73513,29.4246 -25.8296,51.9066 -48.8383,67.4813 -22.8249,15.5607 -52.0515,23.4576 -87.5101,23.4965 -52.7443,-0.144931 -94.8026,-18.4911 -126.186,-55.2152 -31.3758,-36.5439 -47.1486,-94.6365 -47.1309,-174.105 -0.0565585,-84.3747 15.8753,-144.673 47.6187,-180.888 31.7435,-36.2151 75.9015,-54.1689 132.637,-54.2325 27.0951,0.0353491 52.762,3.96263 77.1635,11.5945 24.4156,7.81214 52.5782,21.2483 84.1095,39.9621l0.0318141 73.4659 -161.305 -0.0919075z" />
      </glyph>
      <glyph
         id="glyph3559"
         horiz-adv-x="907"
         unicode="O">
        <path
           id="path3561"
           d="M49.5735 389.331c-0.0989774,127.426 35.3278,226.344 106.259,297.406 70.889,70.8112 169.721,106.252 296.239,106.365 129.749,-0.0106047 229.801,-34.84 300.011,-104.594 70.3552,-69.6482 105.344,-167.236 105.361,-292.701 -0.00353491,-91.1369 -15.2319,-165.95 -46.0492,-224.254 -30.5628,-58.3436 -75.0566,-103.693 -132.98,-136.122 -57.9194,-32.4292 -130.198,-48.8029 -216.647,-48.7605 -88.0156,0.0282792 -160.813,14.0265 -218.397,41.9982 -57.6932,28.1202 -104.389,72.31 -140.155,132.969 -35.7662,60.659 -53.6457,136.557 -53.6422,227.694zm240.886 -0.968564c0.00353491,-78.786 14.5815,-135.313 43.8434,-169.718 29.2655,-34.4088 69.1781,-51.652 119.377,-51.5425 51.8712,-0.0247443 91.9747,16.7661 120.201,50.5209 28.3358,33.6028 42.585,94.0108 42.638,181.372 -0.0848377,73.3387 -14.8537,127.03 -44.3419,160.824 -29.7462,33.8326 -69.9522,50.8638 -120.66,50.8319 -48.4918,0.0106047 -87.6197,-17.1938 -116.984,-51.546 -29.5094,-34.4583 -44.1015,-91.3031 -44.0732,-170.743z" />
      </glyph>
      <glyph
         id="glyph3563"
         horiz-adv-x="847"
         unicode="R">
        <path
           id="path3565"
           d="M82.9395 0.0212094l0.0706981 779.641 401.484 0.116652c74.6077,-0.0459538 131.325,-6.48655 170.778,-19.1203 39.4001,-12.807 71.1541,-36.4625 95.2197,-71.1329 24.1116,-34.4971 36.1974,-76.6898 36.1727,-126.178 0.0600934,-43.2778 -9.15541,-80.6878 -27.5935,-112.049 -18.4416,-31.3617 -43.8576,-56.7564 -76.1313,-76.407 -20.5166,-12.2555 -48.8135,-22.6552 -84.5655,-30.7254 28.8024,-9.58313 49.6725,-19.1557 62.7835,-28.7741 8.77364,-6.29213 21.6584,-20.0005 38.5234,-40.8953 16.8686,-20.8948 28.0778,-37.1448 33.7301,-48.3999l116.525 -226.107 -272.22 0.0353491 -128.713 238.292c-16.4833,30.7961 -30.9552,50.8178 -43.7692,60.157 -17.3493,11.9657 -36.9751,17.9715 -58.8774,18.0174l-21.3756 -0.102512 -0.0530236 -316.424 -241.989 0.0565585zm241.982 463.737l101.674 0.127257c10.9264,-0.109582 32.157,3.43946 63.8687,10.5906 15.8434,3.20262 28.9473,11.347 39.1349,24.4863 9.9649,13.0085 15.0693,28.1697 15.034,45.1832 0.0247443,25.119 -8.03837,44.4338 -24.0161,57.8947 -15.7515,13.5846 -45.7523,20.2974 -89.7795,20.2656l-105.814 -0.074233 -0.102512 -158.473z" />
      </glyph>
      <glyph
         id="glyph3567"
         horiz-adv-x="786"
         unicode="S">
        <path
           id="path3569"
           d="M37.7599 258.055l229.338 14.3694c4.99482,-37.3463 15.0233,-65.7316 30.333,-85.2407 24.7302,-31.549 60.1287,-47.3006 106.358,-47.1839 34.285,-0.0424189 60.8251,7.92526 79.546,24.0692 18.4805,16.2323 27.8445,34.8224 27.9364,56.106 -0.0141396,20.2303 -8.86201,38.3467 -26.7097,54.2714 -17.6781,15.999 -58.7819,31.0966 -123.308,45.2892 -105.786,23.6096 -181.047,55.2364 -226.114,94.7355 -45.3953,39.3435 -68.1565,89.4437 -68.1176,150.375 -0.0424189,40.054 11.7182,77.9977 34.7905,113.601 23.2349,35.6813 58.2835,63.6495 104.828,84.1484 46.6219,20.3398 110.597,30.5345 191.758,30.5098 99.7692,0.0353491 175.713,-18.4487 227.913,-55.6253 52.3626,-37.0953 83.4167,-95.9515 93.4735,-176.82l-227.199 -13.3725c-6.02348,35.2607 -18.7315,60.7933 -37.9578,76.6756 -19.4667,15.9672 -46.0598,24.0055 -80.101,23.9596 -28.0318,-0.0459538 -49.1529,-5.88562 -63.3738,-17.929 -14.1326,-11.7995 -21.1918,-26.3103 -21.3296,-43.2071 -0.0141396,-12.4287 6.01641,-23.645 17.6887,-33.6311 11.34,-10.1416 38.2901,-19.8131 80.868,-28.6151 105.16,-22.6941 180.817,-45.724 226.329,-68.9837 45.5084,-23.2597 78.7648,-52.0373 99.4334,-86.4779 20.7605,-34.2037 31.1602,-72.8332 31.1354,-115.326 -0.0706981,-50.125 -13.9169,-96.054 -41.4786,-138.36 -27.6359,-42.1431 -66.3714,-74.233 -115.956,-95.9515 -49.7467,-21.7962 -112.361,-32.758 -187.919,-32.7262 -132.428,-0.0353491 -224.343,25.6281 -275.355,76.5802 -51.0865,51.1183 -80.108,115.931 -86.8102,194.759z" />
      </glyph>
    </font>
    <style
       id="style3571"
       type="text/css">
   
    @font-face { font-family:&quot;Arial Black&quot;;src:url(&quot;#FontID0&quot;) format(svg)}
    .fil0 {fill:#1F1A17}
    .fnt0 {font-weight:normal;font-size:28.2893;font-family:'Arial Black'}
   
  </style>
    <font
       font-weight="400"
       font-style="normal"
       font-variant="normal"
       id="font3573"
       horiz-origin-x="0"
       horiz-origin-y="0"
       horiz-adv-x="90"
       vert-origin-x="45"
       vert-origin-y="90"
       vert-adv-y="90"
       style="font-style:normal;font-variant:normal;font-weight:400">
      <font-face
         id="font-face3575"
         font-family="Arial Black" />
      <missing-glyph
         id="missing-glyph3577">
        <path
           id="path3579"
           d="M0 0z" />
      </missing-glyph>
      <glyph
         id="glyph3581"
         horiz-adv-x="363"
         unicode=" " />
      <glyph
         id="glyph3583"
         horiz-adv-x="786"
         unicode="E">
        <path
           id="path3585"
           d="M79.1748 779.754l645.788 -0.0424189 0.00706981 -166.409 -404.227 0.0459538 -0.0212094 -124.001 374.976 0.0636283 0.00706981 -159.064 -374.979 -0.0636283 -0.0353491 -153.648 415.949 -0.169675 -0.0989774 -176.455 -657.277 -0.113117 -0.0883726 779.857z" />
      </glyph>
      <glyph
         id="glyph3587"
         horiz-adv-x="423"
         unicode="I">
        <path
           id="path3589"
           d="M89.3271 779.726l241.455 -0.127257 0.0106047 -779.592 -241.537 -0.0353491 0.0706981 779.754z" />
      </glyph>
      <glyph
         id="glyph3591"
         horiz-adv-x="907"
         unicode="G">
        <path
           id="path3593"
           d="M471.786 282.418l0.144931 162.383 372.24 -0.0530236 0.038884 -332.419c-71.2884,-48.6368 -134.305,-81.7023 -189.057,-99.3839 -54.9254,-17.4872 -119.763,-26.275 -195.038,-26.1477 -92.565,-0.0600934 -167.933,15.7127 -226.287,47.3182 -58.3648,31.4288 -103.537,78.5315 -135.726,140.954 -32.0086,62.4158 -48.0782,133.998 -48.0217,214.915 -0.0848377,85.1099 17.4306,159.113 52.5499,222.013 35.1228,62.8966 86.5486,110.756 154.267,143.393 52.9706,25.2286 123.997,37.6927 213.289,37.7387 86.1951,0.0282792 150.711,-7.7167 193.349,-23.4081 42.8324,-15.5182 78.2946,-39.7429 106.401,-72.4938 28.2792,-32.9418 49.3826,-74.4204 63.653,-124.81l-232.392 -41.468c-9.73513,29.4246 -25.8296,51.9066 -48.8383,67.4813 -22.8249,15.5607 -52.0515,23.4576 -87.5101,23.4965 -52.7443,-0.144931 -94.8026,-18.4911 -126.186,-55.2152 -31.3758,-36.5439 -47.1486,-94.6365 -47.1309,-174.105 -0.0565585,-84.3747 15.8753,-144.673 47.6187,-180.888 31.7435,-36.2151 75.9015,-54.1689 132.637,-54.2325 27.0951,0.0353491 52.762,3.96263 77.1635,11.5945 24.4156,7.81214 52.5782,21.2483 84.1095,39.9621l0.0318141 73.4659 -161.305 -0.0919075z" />
      </glyph>
      <glyph
         id="glyph3595"
         horiz-adv-x="907"
         unicode="O">
        <path
           id="path3597"
           d="M49.5735 389.331c-0.0989774,127.426 35.3278,226.344 106.259,297.406 70.889,70.8112 169.721,106.252 296.239,106.365 129.749,-0.0106047 229.801,-34.84 300.011,-104.594 70.3552,-69.6482 105.344,-167.236 105.361,-292.701 -0.00353491,-91.1369 -15.2319,-165.95 -46.0492,-224.254 -30.5628,-58.3436 -75.0566,-103.693 -132.98,-136.122 -57.9194,-32.4292 -130.198,-48.8029 -216.647,-48.7605 -88.0156,0.0282792 -160.813,14.0265 -218.397,41.9982 -57.6932,28.1202 -104.389,72.31 -140.155,132.969 -35.7662,60.659 -53.6457,136.557 -53.6422,227.694zm240.886 -0.968564c0.00353491,-78.786 14.5815,-135.313 43.8434,-169.718 29.2655,-34.4088 69.1781,-51.652 119.377,-51.5425 51.8712,-0.0247443 91.9747,16.7661 120.201,50.5209 28.3358,33.6028 42.585,94.0108 42.638,181.372 -0.0848377,73.3387 -14.8537,127.03 -44.3419,160.824 -29.7462,33.8326 -69.9522,50.8638 -120.66,50.8319 -48.4918,0.0106047 -87.6197,-17.1938 -116.984,-51.546 -29.5094,-34.4583 -44.1015,-91.3031 -44.0732,-170.743z" />
      </glyph>
      <glyph
         id="glyph3599"
         horiz-adv-x="847"
         unicode="R">
        <path
           id="path3601"
           d="M82.9395 0.0212094l0.0706981 779.641 401.484 0.116652c74.6077,-0.0459538 131.325,-6.48655 170.778,-19.1203 39.4001,-12.807 71.1541,-36.4625 95.2197,-71.1329 24.1116,-34.4971 36.1974,-76.6898 36.1727,-126.178 0.0600934,-43.2778 -9.15541,-80.6878 -27.5935,-112.049 -18.4416,-31.3617 -43.8576,-56.7564 -76.1313,-76.407 -20.5166,-12.2555 -48.8135,-22.6552 -84.5655,-30.7254 28.8024,-9.58313 49.6725,-19.1557 62.7835,-28.7741 8.77364,-6.29213 21.6584,-20.0005 38.5234,-40.8953 16.8686,-20.8948 28.0778,-37.1448 33.7301,-48.3999l116.525 -226.107 -272.22 0.0353491 -128.713 238.292c-16.4833,30.7961 -30.9552,50.8178 -43.7692,60.157 -17.3493,11.9657 -36.9751,17.9715 -58.8774,18.0174l-21.3756 -0.102512 -0.0530236 -316.424 -241.989 0.0565585zm241.982 463.737l101.674 0.127257c10.9264,-0.109582 32.157,3.43946 63.8687,10.5906 15.8434,3.20262 28.9473,11.347 39.1349,24.4863 9.9649,13.0085 15.0693,28.1697 15.034,45.1832 0.0247443,25.119 -8.03837,44.4338 -24.0161,57.8947 -15.7515,13.5846 -45.7523,20.2974 -89.7795,20.2656l-105.814 -0.074233 -0.102512 -158.473z" />
      </glyph>
      <glyph
         id="glyph3603"
         horiz-adv-x="786"
         unicode="S">
        <path
           id="path3605"
           d="M37.7599 258.055l229.338 14.3694c4.99482,-37.3463 15.0233,-65.7316 30.333,-85.2407 24.7302,-31.549 60.1287,-47.3006 106.358,-47.1839 34.285,-0.0424189 60.8251,7.92526 79.546,24.0692 18.4805,16.2323 27.8445,34.8224 27.9364,56.106 -0.0141396,20.2303 -8.86201,38.3467 -26.7097,54.2714 -17.6781,15.999 -58.7819,31.0966 -123.308,45.2892 -105.786,23.6096 -181.047,55.2364 -226.114,94.7355 -45.3953,39.3435 -68.1565,89.4437 -68.1176,150.375 -0.0424189,40.054 11.7182,77.9977 34.7905,113.601 23.2349,35.6813 58.2835,63.6495 104.828,84.1484 46.6219,20.3398 110.597,30.5345 191.758,30.5098 99.7692,0.0353491 175.713,-18.4487 227.913,-55.6253 52.3626,-37.0953 83.4167,-95.9515 93.4735,-176.82l-227.199 -13.3725c-6.02348,35.2607 -18.7315,60.7933 -37.9578,76.6756 -19.4667,15.9672 -46.0598,24.0055 -80.101,23.9596 -28.0318,-0.0459538 -49.1529,-5.88562 -63.3738,-17.929 -14.1326,-11.7995 -21.1918,-26.3103 -21.3296,-43.2071 -0.0141396,-12.4287 6.01641,-23.645 17.6887,-33.6311 11.34,-10.1416 38.2901,-19.8131 80.868,-28.6151 105.16,-22.6941 180.817,-45.724 226.329,-68.9837 45.5084,-23.2597 78.7648,-52.0373 99.4334,-86.4779 20.7605,-34.2037 31.1602,-72.8332 31.1354,-115.326 -0.0706981,-50.125 -13.9169,-96.054 -41.4786,-138.36 -27.6359,-42.1431 -66.3714,-74.233 -115.956,-95.9515 -49.7467,-21.7962 -112.361,-32.758 -187.919,-32.7262 -132.428,-0.0353491 -224.343,25.6281 -275.355,76.5802 -51.0865,51.1183 -80.108,115.931 -86.8102,194.759z" />
      </glyph>
    </font>
    <style
       id="style3607"
       type="text/css">
   
    .fil1 {fill:#1F1A17}
    .fil0 {fill:#131516}
    .fil2 {fill:#1F1A17;fill-rule:nonzero}
   
  </style>
    <style
       id="style3609"
       type="text/css">
   
    @font-face { font-family:&quot;Arial&quot;;src:url(&quot;#FontID0&quot;) format(svg)}
    .str5 {stroke:#1F1A17;stroke-width:0.0762}
    .str1 {stroke:#1F1A17;stroke-width:0.0762;stroke-linecap:round;stroke-linejoin:round}
    .str0 {stroke-width:0.6672;stroke-linecap:round;stroke-linejoin:round}
    .str2 {stroke-width:0.7411;stroke-linecap:round;stroke-linejoin:round}
    .str3 {stroke-width:0.7414;stroke-linecap:round;stroke-linejoin:round}
    .str4 {stroke-width:13.5001}
    .str6 {stroke:#1F1A17;stroke-width:0.0762}
    .fil0 {fill:#1F1A17}
    .fil2 {fill:white}
    .fil1 {fill:#1F1A17;fill-rule:nonzero}
    .fnt3 {font-weight:bold;font-size:5.6444;font-family:'Arial'}
    .fnt2 {font-weight:bold;font-size:102.784;font-family:'Arial'}
    .fnt1 {font-weight:bold;font-size:102.817;font-family:'Arial'}
    .fnt0 {font-weight:bold;font-size:114.204;font-family:'Arial'}
   
  </style>
    <font
       font-weight="700"
       font-style="normal"
       class="str0"
       font-variant="normal"
       id="font3611"
       horiz-origin-x="0"
       horiz-origin-y="0"
       horiz-adv-x="90"
       vert-origin-x="45"
       vert-origin-y="90"
       vert-adv-y="90"
       style="font-style:normal;font-variant:normal;font-weight:700;stroke-width:0.66720003;stroke-linecap:round;stroke-linejoin:round">
      <font-face
         id="font-face3613"
         font-family="Arial" />
      <missing-glyph
         id="missing-glyph3615">
        <path
           id="path3617"
           d="M0 0z" />
      </missing-glyph>
      <glyph
         id="glyph3619"
         horiz-adv-x="277"
         unicode=" " />
      <glyph
         id="glyph3621"
         horiz-adv-x="277"
         unicode=",">
        <path
           id="path3623"
           d="M68.3336 137.166l137.166 0 0 -98.1661c0,-39.6666 -3.3335,-70.9999 -10.1669,-93.9999 -6.83336,-22.8336 -19.8329,-43.5001 -38.833,-61.6666 -19.0001,-18.3338 -43.1665,-32.6669 -72.4998,-43.0001l-26.8335 56.6659c27.6662,9.1669 47.3336,21.6673 58.9995,37.5003 11.834,16.0003 18.0002,37.833 18.6674,65.5001l-66.5001 0 0 137.166z" />
      </glyph>
      <glyph
         id="glyph3625"
         horiz-adv-x="500"
         unicode="”">
        <path
           id="path3627"
           d="M293 715.833l137.166 0 0 -98.667c0,-39.6666 -3.49987,-70.9999 -10.4996,-93.6663 -7.00061,-22.8336 -20.0001,-43.5001 -39.0002,-61.833 -19.1665,-18.3338 -43.1665,-32.8332 -71.9999,-43.1673l-26.9998 57.1668c27.4998,9.00053 46.9999,21.6673 58.8331,38.0003 11.9995,16.333 18.0002,38.0003 18.3329,65.0001l-65.8328 0 0 137.166zm-230.5 0l137.166 0 0 -98.667c0,-39.6666 -3.3335,-70.9999 -10.1669,-93.6663 -6.83336,-22.8336 -19.8329,-43.5001 -38.833,-61.833 -19.0001,-18.3338 -43.1665,-32.8332 -72.4998,-43.1673l-26.8335 57.1668c27.6662,9.00053 47.3336,21.6673 59.0004,38.0003 11.6659,16.333 17.9993,38.0003 18.4993,65.0001l-66.3328 0 0 137.166z" />
      </glyph>
      <glyph
         id="glyph3629"
         horiz-adv-x="500"
         unicode="“">
        <path
           id="path3631"
           d="M201.666 425.833l-137.166 0 0 98.167c0,39.6666 3.49987,70.9999 10.4996,93.9999 7.00061,22.8336 19.8337,43.5001 38.8339,61.6666 18.8329,18.3338 42.8329,32.5005 72.1662,43.0001l26.8335 -56.6668c-27.3334,-9.16602 -46.8336,-21.8328 -58.8331,-37.9994 -11.8332,-16.3339 -18.1666,-38.0003 -18.6665,-65.0001l66.3328 0 0 -137.167zm229 0l-137.166 0 0 98.167c0,40.0002 3.49987,71.3335 10.4996,94.1671 7.00061,22.8327 20.0001,43.3328 39.0002,61.4994 19.0001,18.3338 43.0001,32.5005 71.9999,43.0001l26.8335 -56.6668c-27.3334,-9.16602 -46.8336,-21.8328 -58.8331,-37.9994 -11.8332,-16.3339 -18.1666,-38.0003 -18.6665,-65.0001l66.3328 0 0 -137.167z" />
      </glyph>
      <glyph
         id="glyph3633"
         horiz-adv-x="610"
         unicode="L">
        <path
           id="path3635"
           d="M76.6069 0.0354333l0.0177167 709.712 144.515 0.141733 0.0885834 -589.327 359.276 0 -0.141733 -120.615 -503.756 0.0885834z" />
      </glyph>
      <glyph
         id="glyph3637"
         horiz-adv-x="666"
         unicode="E">
        <path
           id="path3639"
           d="M72.6915 -0.0354333l-0.0354333 715.754 530.792 0.0354333 0.05315 -121.164 -386.224 0.0177167 -0.05315 -158.582 359.383 0.05315 -0.0354333 -120.633 -359.383 -0.0708667 0.1063 -194.742 399.794 0.0354333 -0.0354333 -120.651 -544.363 -0.05315z" />
      </glyph>
      <glyph
         id="glyph3641"
         horiz-adv-x="610"
         unicode="F">
        <path
           id="path3643"
           d="M73.6665 0l0 715.833 490.833 0 0 -121.166 -346.166 0 0 -169.333 298.833 0 0 -121.167 -298.833 0 0 -304.166 -144.667 0z" />
      </glyph>
      <glyph
         id="glyph3645"
         horiz-adv-x="722"
         unicode="N">
        <path
           id="path3647"
           d="M74.2506 0.0708667l-0.0177167 715.754 140.6 -0.0177167 292.963 -478.084 -0.0177167 478.12 134.222 -0.0354333 0.0177167 -715.754 -144.958 -0.0177167 -288.622 466.728 0.0354333 -466.728 -134.222 0.0354333z" />
      </glyph>
      <glyph
         id="glyph3649"
         horiz-adv-x="777"
         unicode="O">
        <path
           id="path3651"
           d="M43.4059 353.465c0.05315,72.8864 11.0021,134.151 32.7936,183.669 16.2816,36.4964 38.4098,69.095 66.5261,98.0972 28.2581,28.8959 59.0674,50.4394 92.6051,64.5064 44.6106,18.886 96.0952,28.2049 154.259,28.2581 105.556,-0.0354333 189.976,-32.6695 253.295,-98.1504 63.1954,-65.3745 94.8551,-156.35 94.8728,-272.819 0.0708667,-115.743 -31.4648,-206.063 -94.235,-271.402 -62.6993,-65.1796 -146.871,-97.8315 -251.913,-97.9023 -106.53,0.0354333 -191.021,32.5278 -253.862,97.5126 -62.8588,64.9848 -94.3413,154.295 -94.3413,268.23zm149.015 4.96067c-0.0885834,-81.0361 18.7797,-142.531 56.0556,-184.377 37.4885,-41.7759 84.9869,-62.7347 142.548,-62.6993 57.7209,-0.0708667 105.007,20.7108 142.017,62.2387 36.7798,41.4747 55.3823,103.802 55.3115,186.875 0,81.851 -17.9647,143.204 -53.8764,183.456 -36.0534,40.3232 -83.7467,60.6087 -143.399,60.6796 -59.5812,-0.15945 -107.593,-20.5159 -144.037,-61.4237 -36.4432,-40.9078 -54.7445,-102.438 -54.6205,-184.749z" />
      </glyph>
      <glyph
         id="glyph3653"
         horiz-adv-x="722"
         unicode="H">
        <path
           id="path3655"
           d="M73.1699 0.05315l0.141733 715.399 144.391 0.0885834 -0.05315 -281.731 283.095 0.124017 -0.05315 281.518 144.55 0.141733 -0.0708667 -715.559 -144.391 -0.0708667 0.0177167 312.947 -283.095 -0.124017 -0.0708667 -312.806 -144.462 0.0708667z" />
      </glyph>
      <glyph
         id="glyph3657"
         horiz-adv-x="277"
         unicode="I">
        <path
           id="path3659"
           d="M68.3336 0l0 715.833 144.5 0 0 -715.833 -144.5 0z" />
      </glyph>
      <glyph
         id="glyph3661"
         horiz-adv-x="722"
         unicode="A">
        <path
           id="path3663"
           d="M718.163 0.05315l-157.218 -0.124017 -62.469 162.604 -286.124 0 -59.032 -162.533 -153.32 0 278.843 715.825 152.806 -0.1063 286.514 -715.665zm-266.016 283.112l-98.6642 265.644 -96.733 -265.626 195.397 -0.0177167z" />
      </glyph>
      <glyph
         id="glyph3665"
         horiz-adv-x="610"
         unicode="Z">
        <path
           id="path3667"
           d="M10.667 0l0 130.334 376 464.333 -333.5 0 0 121.166 523.999 0 0 -112.333 -392.166 -482.833 407.333 0 0 -120.667 -581.666 0z" />
      </glyph>
      <glyph
         id="glyph3669"
         horiz-adv-x="722"
         unicode="U">
        <path
           id="path3671"
           d="M71.8332 715.833l144.5 0 0 -387.667c0,-61.4993 1.83335,-101.499 5.33373,-119.667 6.16627,-29.3326 21.0003,-52.8335 44.1666,-70.4997 23.3336,-17.8336 55.1667,-26.6667 95.5004,-26.6667 40.9999,0 71.9995,8.33322 92.8325,25.1669 20.834,16.6664 33.3339,37.3332 37.5005,61.6666 4.33292,24.4997 6.33356,64.9997 6.33356,121.666l0 396 144.5 0 0 -376c0,-86 -3.83398,-146.667 -11.6673,-182.167 -7.8333,-35.4998 -22.1665,-65.3333 -43.1658,-89.834 -21.0003,-24.3325 -49.1668,-43.833 -84.1667,-58.3325 -35.1672,-14.5005 -81.1672,-21.6666 -137.834,-21.6666 -68.3338,0 -120.166,7.8333 -155.5,23.6662 -35.3335,15.8329 -63.1664,36.3333 -83.6668,61.5003 -20.5004,25.166 -34.0001,51.6664 -40.5,79.3329 -9.50034,40.9999 -14.1669,101.5 -14.1669,181.667l0 381.833z" />
      </glyph>
      <glyph
         id="glyph3673"
         horiz-adv-x="666"
         unicode="Y">
        <path
           id="path3675"
           d="M260.667 0l0 301.333 -262.167 414.5 169.5 0 168.501 -283.167 165 283.167 166.5 0 -263.167 -415.5 0 -300.333 -144.166 0z" />
      </glyph>
      <glyph
         id="glyph3677"
         horiz-adv-x="722"
         unicode="R">
        <path
           id="path3679"
           d="M73.1666 0l0 715.833 304.334 0c76.4997,0 132,-6.49987 166.666,-19.3333 34.6663,-12.8334 62.5001,-35.6661 83.3332,-68.5001 20.833,-32.9993 31.1669,-70.4997 31.1669,-112.833 0,-53.667 -15.8329,-98.1663 -47.3334,-133.167 -31.4995,-34.8326 -78.833,-56.9991 -141.667,-65.9995 31.3332,-18.3335 57.1664,-38.333 77.5005,-60.1669 20.3331,-21.8329 47.6661,-60.4995 82.1661,-116.166l87.4998 -139.667 -172.833 0 -104.501 155.834c-37.1659,55.6666 -62.4991,90.6666 -76.1661,105.166 -13.6669,14.5005 -28.1664,24.3334 -43.5004,29.8335 -15.333,5.33373 -39.5001,8.00059 -72.833,8.00059l-29.1663 0 0 -298.834 -144.667 0zm144.667 413.166l106.833 0c69.3336,0 112.667,2.83318 129.999,8.66682 17.1673,5.83364 30.667,16.0002 40.5,30.3334 9.66762,14.3332 14.6668,32.1667 14.6668,53.667 0,24.1661 -6.49987,43.4994 -19.3333,58.3335 -12.8334,14.8331 -30.9996,24.1661 -54.4995,28.1664 -11.6663,1.49975 -46.8335,2.33326 -105.5,2.33326l-112.667 0 0 -181.5z" />
      </glyph>
      <glyph
         id="glyph3681"
         horiz-adv-x="610"
         unicode="T">
        <path
           id="path3683"
           d="M233.825 0.0708667l0.0354333 594.642 -212.458 -0.1063 0.15945 121.164 568.617 -0.0708667 0 -121.005 -211.785 -0.0708667 -0.0354333 -594.66 -144.533 0.1063z" />
      </glyph>
      <glyph
         id="glyph3685"
         horiz-adv-x="666"
         unicode="P">
        <path
           id="path3687"
           d="M72.7447 -0.0708667l0 715.931 231.947 -0.0885834c87.8038,0.0177167 145.153,-3.5079 171.887,-10.754 40.9964,-10.6123 75.2959,-33.9806 103.04,-69.9454 27.5849,-35.9826 41.5279,-82.4534 41.4747,-139.43 -0.0708667,-43.9196 -7.91935,-80.9475 -23.8644,-110.942 -15.9804,-29.8349 -36.2838,-53.4158 -60.7859,-70.5655 -24.697,-17.008 -49.6421,-28.3467 -75.0478,-33.8743 -34.4766,-6.8032 -84.3845,-10.2048 -149.919,-10.2225l-94.1818 -0.0177167 0.05315 -269.967 -144.604 -0.124017zm144.621 594.713l-0.1063 -203.122 79.0872 0.1063c56.9945,-0.05315 95.1385,3.79137 114.29,11.1615 19.1517,7.5473 34.1932,19.1872 45.2307,35.2562 10.9135,15.8919 16.3348,34.4058 16.2993,55.5063 -0.0708667,26.1498 -7.68904,47.6224 -22.8722,64.471 -15.3604,16.9903 -34.7247,27.514 -58.1284,31.766 -17.2915,3.38388 -51.9807,4.92524 -104.103,4.97839l-69.6974 -0.124017z" />
      </glyph>
    </font>
    <metadata
       id="metadata3690" />
    <clipPath
       id="clipPath3692">
      <path
         id="path3694"
         d="m 98.3993,109.313 c 3.0117,7.0923 28.1165,6.06 38.8462,28.2761 l -5.4646,4.0362 c -0.4561,6.2613 11.8469,1.6057 10.6912,18.4933 -0.2505,0.8016 -0.9446,1.8249 -1.1951,2.6265 -1.7263,-3.1797 -5.3913,-7.7353 -8.337,-9.5782 -0.9962,-0.6232 -2.0578,-0.7742 -3.1736,-0.8289 -9.6191,-0.4718 -11.5593,-2.4284 -12.8835,-3.5088 -15.3224,-12.501 -35.0049,-2.3707 -42.8344,-17.8164 0.5207,-4.9948 5.7494,-11.6586 12.0039,-16.3022 3.9847,-2.9585 8.3085,-5.1486 12.3469,-5.3976 l 0,0 z"
         inkscape:connector-curvature="0" />
    </clipPath>
    <style
       id="style3696"
       type="text/css">
   
    .str0 {stroke:#00923F;stroke-width:0.0762}
    .str3 {stroke:#1F1A17;stroke-width:0.0762}
    .str4 {stroke:#71625B;stroke-width:0.0762}
    .str1 {stroke:#DA251D;stroke-width:0.0762}
    .str5 {stroke:#DEDEDD;stroke-width:0.0762}
    .str2 {stroke:white;stroke-width:0.7056;stroke-linecap:round;stroke-linejoin:round}
    .fil3 {fill:none}
    .fil1 {fill:#00923F}
    .fil6 {fill:#1F1A17}
    .fil4 {fill:#28166F}
    .fil8 {fill:#71625B}
    .fil7 {fill:#AAA9A9}
    .fil2 {fill:#DA251D}
    .fil0 {fill:white}
    .fil5 {fill:white}
   
  </style>
    <metadata
       id="metadata3698" />
    <metadata
       id="metadata3700" />
    <style
       id="style3702"
       type="text/css">
   
    @font-face { font-family:&quot;Arial&quot;;src:url(&quot;#FontID0&quot;) format(svg)}
    .str5 {stroke:#1F1A17;stroke-width:0.0762}
    .str1 {stroke:#1F1A17;stroke-width:0.0762;stroke-linecap:round;stroke-linejoin:round}
    .str0 {stroke-width:0.6672;stroke-linecap:round;stroke-linejoin:round}
    .str2 {stroke-width:0.7411;stroke-linecap:round;stroke-linejoin:round}
    .str3 {stroke-width:0.7414;stroke-linecap:round;stroke-linejoin:round}
    .str4 {stroke-width:13.5001}
    .str6 {stroke:#1F1A17;stroke-width:0.0762}
    .fil0 {fill:#1F1A17}
    .fil3 {fill:#72706F}
    .fil4 {fill:#AAA9A9}
    .fil2 {fill:white}
    .fil1 {fill:#1F1A17;fill-rule:nonzero}
    .fnt3 {font-weight:bold;font-size:5.6444;font-family:'Arial'}
    .fnt2 {font-weight:bold;font-size:102.784;font-family:'Arial'}
    .fnt1 {font-weight:bold;font-size:102.817;font-family:'Arial'}
    .fnt0 {font-weight:bold;font-size:114.204;font-family:'Arial'}
   
  </style>
    <font
       font-weight="700"
       font-style="normal"
       class="str0"
       font-variant="normal"
       id="font3704"
       horiz-origin-x="0"
       horiz-origin-y="0"
       horiz-adv-x="90"
       vert-origin-x="45"
       vert-origin-y="90"
       vert-adv-y="90"
       style="font-style:normal;font-variant:normal;font-weight:700;stroke-width:0.66720003;stroke-linecap:round;stroke-linejoin:round">
      <font-face
         id="font-face3706"
         font-family="Arial" />
      <missing-glyph
         id="missing-glyph3708">
        <path
           id="path3710"
           d="M0 0z" />
      </missing-glyph>
      <glyph
         id="glyph3712"
         horiz-adv-x="277"
         unicode=" " />
      <glyph
         id="glyph3714"
         horiz-adv-x="277"
         unicode=",">
        <path
           id="path3716"
           d="M68.3336 137.166l137.166 0 0 -98.1661c0,-39.6666 -3.3335,-70.9999 -10.1669,-93.9999 -6.83336,-22.8336 -19.8329,-43.5001 -38.833,-61.6666 -19.0001,-18.3338 -43.1665,-32.6669 -72.4998,-43.0001l-26.8335 56.6659c27.6662,9.1669 47.3336,21.6673 58.9995,37.5003 11.834,16.0003 18.0002,37.833 18.6674,65.5001l-66.5001 0 0 137.166z" />
      </glyph>
      <glyph
         id="glyph3718"
         horiz-adv-x="500"
         unicode="”">
        <path
           id="path3720"
           d="M293 715.833l137.166 0 0 -98.667c0,-39.6666 -3.49987,-70.9999 -10.4996,-93.6663 -7.00061,-22.8336 -20.0001,-43.5001 -39.0002,-61.833 -19.1665,-18.3338 -43.1665,-32.8332 -71.9999,-43.1673l-26.9998 57.1668c27.4998,9.00053 46.9999,21.6673 58.8331,38.0003 11.9995,16.333 18.0002,38.0003 18.3329,65.0001l-65.8328 0 0 137.166zm-230.5 0l137.166 0 0 -98.667c0,-39.6666 -3.3335,-70.9999 -10.1669,-93.6663 -6.83336,-22.8336 -19.8329,-43.5001 -38.833,-61.833 -19.0001,-18.3338 -43.1665,-32.8332 -72.4998,-43.1673l-26.8335 57.1668c27.6662,9.00053 47.3336,21.6673 59.0004,38.0003 11.6659,16.333 17.9993,38.0003 18.4993,65.0001l-66.3328 0 0 137.166z" />
      </glyph>
      <glyph
         id="glyph3722"
         horiz-adv-x="500"
         unicode="“">
        <path
           id="path3724"
           d="M201.666 425.833l-137.166 0 0 98.167c0,39.6666 3.49987,70.9999 10.4996,93.9999 7.00061,22.8336 19.8337,43.5001 38.8339,61.6666 18.8329,18.3338 42.8329,32.5005 72.1662,43.0001l26.8335 -56.6668c-27.3334,-9.16602 -46.8336,-21.8328 -58.8331,-37.9994 -11.8332,-16.3339 -18.1666,-38.0003 -18.6665,-65.0001l66.3328 0 0 -137.167zm229 0l-137.166 0 0 98.167c0,40.0002 3.49987,71.3335 10.4996,94.1671 7.00061,22.8327 20.0001,43.3328 39.0002,61.4994 19.0001,18.3338 43.0001,32.5005 71.9999,43.0001l26.8335 -56.6668c-27.3334,-9.16602 -46.8336,-21.8328 -58.8331,-37.9994 -11.8332,-16.3339 -18.1666,-38.0003 -18.6665,-65.0001l66.3328 0 0 -137.167z" />
      </glyph>
      <glyph
         id="glyph3726"
         horiz-adv-x="610"
         unicode="L">
        <path
           id="path3728"
           d="M76.6069 0.0354333l0.0177167 709.712 144.515 0.141733 0.0885834 -589.327 359.276 0 -0.141733 -120.615 -503.756 0.0885834z" />
      </glyph>
      <glyph
         id="glyph3730"
         horiz-adv-x="666"
         unicode="E">
        <path
           id="path3732"
           d="M72.6915 -0.0354333l-0.0354333 715.754 530.792 0.0354333 0.05315 -121.164 -386.224 0.0177167 -0.05315 -158.582 359.383 0.05315 -0.0354333 -120.633 -359.383 -0.0708667 0.1063 -194.742 399.794 0.0354333 -0.0354333 -120.651 -544.363 -0.05315z" />
      </glyph>
      <glyph
         id="glyph3734"
         horiz-adv-x="610"
         unicode="F">
        <path
           id="path3736"
           d="M73.6665 0l0 715.833 490.833 0 0 -121.166 -346.166 0 0 -169.333 298.833 0 0 -121.167 -298.833 0 0 -304.166 -144.667 0z" />
      </glyph>
      <glyph
         id="glyph3738"
         horiz-adv-x="722"
         unicode="N">
        <path
           id="path3740"
           d="M74.2506 0.0708667l-0.0177167 715.754 140.6 -0.0177167 292.963 -478.084 -0.0177167 478.12 134.222 -0.0354333 0.0177167 -715.754 -144.958 -0.0177167 -288.622 466.728 0.0354333 -466.728 -134.222 0.0354333z" />
      </glyph>
      <glyph
         id="glyph3742"
         horiz-adv-x="777"
         unicode="O">
        <path
           id="path3744"
           d="M43.4059 353.465c0.05315,72.8864 11.0021,134.151 32.7936,183.669 16.2816,36.4964 38.4098,69.095 66.5261,98.0972 28.2581,28.8959 59.0674,50.4394 92.6051,64.5064 44.6106,18.886 96.0952,28.2049 154.259,28.2581 105.556,-0.0354333 189.976,-32.6695 253.295,-98.1504 63.1954,-65.3745 94.8551,-156.35 94.8728,-272.819 0.0708667,-115.743 -31.4648,-206.063 -94.235,-271.402 -62.6993,-65.1796 -146.871,-97.8315 -251.913,-97.9023 -106.53,0.0354333 -191.021,32.5278 -253.862,97.5126 -62.8588,64.9848 -94.3413,154.295 -94.3413,268.23zm149.015 4.96067c-0.0885834,-81.0361 18.7797,-142.531 56.0556,-184.377 37.4885,-41.7759 84.9869,-62.7347 142.548,-62.6993 57.7209,-0.0708667 105.007,20.7108 142.017,62.2387 36.7798,41.4747 55.3823,103.802 55.3115,186.875 0,81.851 -17.9647,143.204 -53.8764,183.456 -36.0534,40.3232 -83.7467,60.6087 -143.399,60.6796 -59.5812,-0.15945 -107.593,-20.5159 -144.037,-61.4237 -36.4432,-40.9078 -54.7445,-102.438 -54.6205,-184.749z" />
      </glyph>
      <glyph
         id="glyph3746"
         horiz-adv-x="722"
         unicode="H">
        <path
           id="path3748"
           d="M73.1699 0.05315l0.141733 715.399 144.391 0.0885834 -0.05315 -281.731 283.095 0.124017 -0.05315 281.518 144.55 0.141733 -0.0708667 -715.559 -144.391 -0.0708667 0.0177167 312.947 -283.095 -0.124017 -0.0708667 -312.806 -144.462 0.0708667z" />
      </glyph>
      <glyph
         id="glyph3750"
         horiz-adv-x="277"
         unicode="I">
        <path
           id="path3752"
           d="M68.3336 0l0 715.833 144.5 0 0 -715.833 -144.5 0z" />
      </glyph>
      <glyph
         id="glyph3754"
         horiz-adv-x="722"
         unicode="A">
        <path
           id="path3756"
           d="M718.163 0.05315l-157.218 -0.124017 -62.469 162.604 -286.124 0 -59.032 -162.533 -153.32 0 278.843 715.825 152.806 -0.1063 286.514 -715.665zm-266.016 283.112l-98.6642 265.644 -96.733 -265.626 195.397 -0.0177167z" />
      </glyph>
      <glyph
         id="glyph3758"
         horiz-adv-x="610"
         unicode="Z">
        <path
           id="path3760"
           d="M10.667 0l0 130.334 376 464.333 -333.5 0 0 121.166 523.999 0 0 -112.333 -392.166 -482.833 407.333 0 0 -120.667 -581.666 0z" />
      </glyph>
      <glyph
         id="glyph3762"
         horiz-adv-x="722"
         unicode="U">
        <path
           id="path3764"
           d="M71.8332 715.833l144.5 0 0 -387.667c0,-61.4993 1.83335,-101.499 5.33373,-119.667 6.16627,-29.3326 21.0003,-52.8335 44.1666,-70.4997 23.3336,-17.8336 55.1667,-26.6667 95.5004,-26.6667 40.9999,0 71.9995,8.33322 92.8325,25.1669 20.834,16.6664 33.3339,37.3332 37.5005,61.6666 4.33292,24.4997 6.33356,64.9997 6.33356,121.666l0 396 144.5 0 0 -376c0,-86 -3.83398,-146.667 -11.6673,-182.167 -7.8333,-35.4998 -22.1665,-65.3333 -43.1658,-89.834 -21.0003,-24.3325 -49.1668,-43.833 -84.1667,-58.3325 -35.1672,-14.5005 -81.1672,-21.6666 -137.834,-21.6666 -68.3338,0 -120.166,7.8333 -155.5,23.6662 -35.3335,15.8329 -63.1664,36.3333 -83.6668,61.5003 -20.5004,25.166 -34.0001,51.6664 -40.5,79.3329 -9.50034,40.9999 -14.1669,101.5 -14.1669,181.667l0 381.833z" />
      </glyph>
      <glyph
         id="glyph3766"
         horiz-adv-x="666"
         unicode="Y">
        <path
           id="path3768"
           d="M260.667 0l0 301.333 -262.167 414.5 169.5 0 168.501 -283.167 165 283.167 166.5 0 -263.167 -415.5 0 -300.333 -144.166 0z" />
      </glyph>
      <glyph
         id="glyph3770"
         horiz-adv-x="722"
         unicode="R">
        <path
           id="path3772"
           d="M73.1666 0l0 715.833 304.334 0c76.4997,0 132,-6.49987 166.666,-19.3333 34.6663,-12.8334 62.5001,-35.6661 83.3332,-68.5001 20.833,-32.9993 31.1669,-70.4997 31.1669,-112.833 0,-53.667 -15.8329,-98.1663 -47.3334,-133.167 -31.4995,-34.8326 -78.833,-56.9991 -141.667,-65.9995 31.3332,-18.3335 57.1664,-38.333 77.5005,-60.1669 20.3331,-21.8329 47.6661,-60.4995 82.1661,-116.166l87.4998 -139.667 -172.833 0 -104.501 155.834c-37.1659,55.6666 -62.4991,90.6666 -76.1661,105.166 -13.6669,14.5005 -28.1664,24.3334 -43.5004,29.8335 -15.333,5.33373 -39.5001,8.00059 -72.833,8.00059l-29.1663 0 0 -298.834 -144.667 0zm144.667 413.166l106.833 0c69.3336,0 112.667,2.83318 129.999,8.66682 17.1673,5.83364 30.667,16.0002 40.5,30.3334 9.66762,14.3332 14.6668,32.1667 14.6668,53.667 0,24.1661 -6.49987,43.4994 -19.3333,58.3335 -12.8334,14.8331 -30.9996,24.1661 -54.4995,28.1664 -11.6663,1.49975 -46.8335,2.33326 -105.5,2.33326l-112.667 0 0 -181.5z" />
      </glyph>
      <glyph
         id="glyph3774"
         horiz-adv-x="610"
         unicode="T">
        <path
           id="path3776"
           d="M233.825 0.0708667l0.0354333 594.642 -212.458 -0.1063 0.15945 121.164 568.617 -0.0708667 0 -121.005 -211.785 -0.0708667 -0.0354333 -594.66 -144.533 0.1063z" />
      </glyph>
      <glyph
         id="glyph3778"
         horiz-adv-x="666"
         unicode="P">
        <path
           id="path3780"
           d="M72.7447 -0.0708667l0 715.931 231.947 -0.0885834c87.8038,0.0177167 145.153,-3.5079 171.887,-10.754 40.9964,-10.6123 75.2959,-33.9806 103.04,-69.9454 27.5849,-35.9826 41.5279,-82.4534 41.4747,-139.43 -0.0708667,-43.9196 -7.91935,-80.9475 -23.8644,-110.942 -15.9804,-29.8349 -36.2838,-53.4158 -60.7859,-70.5655 -24.697,-17.008 -49.6421,-28.3467 -75.0478,-33.8743 -34.4766,-6.8032 -84.3845,-10.2048 -149.919,-10.2225l-94.1818 -0.0177167 0.05315 -269.967 -144.604 -0.124017zm144.621 594.713l-0.1063 -203.122 79.0872 0.1063c56.9945,-0.05315 95.1385,3.79137 114.29,11.1615 19.1517,7.5473 34.1932,19.1872 45.2307,35.2562 10.9135,15.8919 16.3348,34.4058 16.2993,55.5063 -0.0708667,26.1498 -7.68904,47.6224 -22.8722,64.471 -15.3604,16.9903 -34.7247,27.514 -58.1284,31.766 -17.2915,3.38388 -51.9807,4.92524 -104.103,4.97839l-69.6974 -0.124017z" />
      </glyph>
    </font>
    <metadata
       id="metadata3782" />
    <metadata
       id="metadata3784" />
    <metadata
       id="metadata3786" />
    <metadata
       id="metadata3788" />
    <metadata
       id="metadata3790" />
    <style
       id="style2645"
       type="text/css">
   
    @font-face { font-family:&quot;Arial&quot;;src:url(&quot;#FontID0&quot;) format(svg)}
    .str1 {stroke:#1F1A17;stroke-width:0.0762;stroke-linecap:round;stroke-linejoin:round}
    .str0 {stroke-width:0.6672;stroke-linecap:round;stroke-linejoin:round}
    .str2 {stroke-width:0.7411;stroke-linecap:round;stroke-linejoin:round}
    .str3 {stroke-width:0.7414;stroke-linecap:round;stroke-linejoin:round}
    .str4 {stroke:#1F1A17;stroke-width:0.0762}
    .fil0 {fill:#1F1A17}
    .fil3 {fill:#72706F}
    .fil4 {fill:#AAA9A9}
    .fil2 {fill:white}
    .fil1 {fill:#1F1A17;fill-rule:nonzero}
    .fnt2 {font-weight:bold;font-size:102.784;font-family:'Arial'}
    .fnt1 {font-weight:bold;font-size:102.817;font-family:'Arial'}
    .fnt0 {font-weight:bold;font-size:114.204;font-family:'Arial'}
   
  </style>
    <font
       font-weight="700"
       font-style="normal"
       class="str0"
       font-variant="normal"
       id="FontID0"
       horiz-origin-x="0"
       horiz-origin-y="0"
       horiz-adv-x="90"
       vert-origin-x="45"
       vert-origin-y="90"
       vert-adv-y="90"
       style="font-style:normal;font-variant:normal;font-weight:700;stroke-width:0.66720003;stroke-linecap:round;stroke-linejoin:round">
      <font-face
         id="font-face2573"
         font-family="Arial" />
      <missing-glyph
         id="missing-glyph2575">
        <path
           id="path2577"
           d="M0 0z" />
      </missing-glyph>
      <glyph
         id="glyph2579"
         horiz-adv-x="277"
         unicode=" " />
      <glyph
         id="glyph2581"
         horiz-adv-x="277"
         unicode=",">
        <path
           id="path2583"
           d="M68.3336 137.166l137.166 0 0 -98.1661c0,-39.6666 -3.3335,-70.9999 -10.1669,-93.9999 -6.83336,-22.8336 -19.8329,-43.5001 -38.833,-61.6666 -19.0001,-18.3338 -43.1665,-32.6669 -72.4998,-43.0001l-26.8335 56.6659c27.6662,9.1669 47.3336,21.6673 58.9995,37.5003 11.834,16.0003 18.0002,37.833 18.6674,65.5001l-66.5001 0 0 137.166z" />
      </glyph>
      <glyph
         id="glyph2585"
         horiz-adv-x="500"
         unicode="”">
        <path
           id="path2587"
           d="M293 715.833l137.166 0 0 -98.667c0,-39.6666 -3.49987,-70.9999 -10.4996,-93.6663 -7.00061,-22.8336 -20.0001,-43.5001 -39.0002,-61.833 -19.1665,-18.3338 -43.1665,-32.8332 -71.9999,-43.1673l-26.9998 57.1668c27.4998,9.00053 46.9999,21.6673 58.8331,38.0003 11.9995,16.333 18.0002,38.0003 18.3329,65.0001l-65.8328 0 0 137.166zm-230.5 0l137.166 0 0 -98.667c0,-39.6666 -3.3335,-70.9999 -10.1669,-93.6663 -6.83336,-22.8336 -19.8329,-43.5001 -38.833,-61.833 -19.0001,-18.3338 -43.1665,-32.8332 -72.4998,-43.1673l-26.8335 57.1668c27.6662,9.00053 47.3336,21.6673 59.0004,38.0003 11.6659,16.333 17.9993,38.0003 18.4993,65.0001l-66.3328 0 0 137.166z" />
      </glyph>
      <glyph
         id="glyph2589"
         horiz-adv-x="500"
         unicode="“">
        <path
           id="path2591"
           d="M201.666 425.833l-137.166 0 0 98.167c0,39.6666 3.49987,70.9999 10.4996,93.9999 7.00061,22.8336 19.8337,43.5001 38.8339,61.6666 18.8329,18.3338 42.8329,32.5005 72.1662,43.0001l26.8335 -56.6668c-27.3334,-9.16602 -46.8336,-21.8328 -58.8331,-37.9994 -11.8332,-16.3339 -18.1666,-38.0003 -18.6665,-65.0001l66.3328 0 0 -137.167zm229 0l-137.166 0 0 98.167c0,40.0002 3.49987,71.3335 10.4996,94.1671 7.00061,22.8327 20.0001,43.3328 39.0002,61.4994 19.0001,18.3338 43.0001,32.5005 71.9999,43.0001l26.8335 -56.6668c-27.3334,-9.16602 -46.8336,-21.8328 -58.8331,-37.9994 -11.8332,-16.3339 -18.1666,-38.0003 -18.6665,-65.0001l66.3328 0 0 -137.167z" />
      </glyph>
      <glyph
         id="glyph2593"
         horiz-adv-x="666"
         unicode="E">
        <path
           id="path2595"
           d="M72.833 0l0 715.833 530.667 0 0 -121.166 -386.167 0 0 -158.667 359.334 0 0 -120.5 -359.334 0 0 -194.834 399.834 0 0 -120.666 -544.334 0z" />
      </glyph>
      <glyph
         id="glyph2597"
         horiz-adv-x="610"
         unicode="F">
        <path
           id="path2599"
           d="M73.6665 0l0 715.833 490.833 0 0 -121.166 -346.166 0 0 -169.333 298.833 0 0 -121.167 -298.833 0 0 -304.166 -144.667 0z" />
      </glyph>
      <glyph
         id="glyph2601"
         horiz-adv-x="722"
         unicode="N">
        <path
           id="path2603"
           d="M74.167 0l0 715.833 140.666 0 293 -478 0 478 134.334 0 0 -715.833 -145.167 0 -288.5 466.833 0 -466.833 -134.333 0z" />
      </glyph>
      <glyph
         id="glyph2605"
         horiz-adv-x="777"
         unicode="O">
        <path
           id="path2607"
           d="M43.5001 353.5c0,72.9998 10.8332,134.166 32.6669,183.666 16.333,36.3331 38.4994,69.1663 66.6664,98.167 28.167,28.8334 59.0004,50.3326 92.4999,64.3329 44.6664,19.0001 95.9998,28.3334 154.333,28.3334 105.5,0 189.833,-32.6669 253.167,-98.167 63.3329,-65.3329 94.9998,-156.333 94.9998,-272.833 0,-115.667 -31.4997,-206 -94.3335,-271.334 -62.833,-65.1665 -146.833,-97.8334 -251.833,-97.8334 -106.5,0 -191.167,32.5005 -254.001,97.3334 -62.833,65.0001 -94.1662,154.5 -94.1662,268.334zm148.833 4.83256c0,-80.9995 18.8338,-142.5 56.1668,-184.333 37.5003,-41.8338 85.0002,-62.6666 142.667,-62.6666 57.4995,0 104.833,20.6665 141.833,62.333 36.834,41.5002 55.3341,103.667 55.3341,186.667 0,81.9995 -18.0002,143.166 -53.8342,183.666 -35.9995,40.3329 -83.833,60.5003 -143.332,60.5003 -59.6667,0 -107.667,-20.5001 -144.167,-61.3339 -36.3331,-40.8329 -54.6669,-102.333 -54.6669,-184.834z" />
      </glyph>
      <glyph
         id="glyph2609"
         horiz-adv-x="722"
         unicode="H">
        <path
           id="path2611"
           d="M73.1671 0l0 715.833 144.666 0 0 -281.667 283.167 0 0 281.667 144.5 0 0 -715.833 -144.5 0 0 313 -283.167 0 0 -313 -144.666 0z" />
      </glyph>
      <glyph
         id="glyph2613"
         horiz-adv-x="277"
         unicode="I">
        <path
           id="path2615"
           d="M68.3336 0l0 715.833 144.5 0 0 -715.833 -144.5 0z" />
      </glyph>
      <glyph
         id="glyph2617"
         horiz-adv-x="722"
         unicode="A">
        <path
           id="path2619"
           d="M718.333 0l-157.333 0 -62.5002 162.666 -286.167 0 -59.0004 -162.666 -153.333 0 278.833 715.833 152.833 0 286.667 -715.833zm-266.167 283.167l-98.6661 265.667 -96.667 -265.667 195.333 0z" />
      </glyph>
      <glyph
         id="glyph2621"
         horiz-adv-x="610"
         unicode="Z">
        <path
           id="path2623"
           d="M10.667 0l0 130.334 376 464.333 -333.5 0 0 121.166 523.999 0 0 -112.333 -392.166 -482.833 407.333 0 0 -120.667 -581.666 0z" />
      </glyph>
      <glyph
         id="glyph2625"
         horiz-adv-x="722"
         unicode="U">
        <path
           id="path2627"
           d="M71.8332 715.833l144.5 0 0 -387.667c0,-61.4993 1.83335,-101.499 5.33373,-119.667 6.16627,-29.3326 21.0003,-52.8335 44.1666,-70.4997 23.3336,-17.8336 55.1667,-26.6667 95.5004,-26.6667 40.9999,0 71.9995,8.33322 92.8325,25.1669 20.834,16.6664 33.3339,37.3332 37.5005,61.6666 4.33292,24.4997 6.33356,64.9997 6.33356,121.666l0 396 144.5 0 0 -376c0,-86 -3.83398,-146.667 -11.6673,-182.167 -7.8333,-35.4998 -22.1665,-65.3333 -43.1658,-89.834 -21.0003,-24.3325 -49.1668,-43.833 -84.1667,-58.3325 -35.1672,-14.5005 -81.1672,-21.6666 -137.834,-21.6666 -68.3338,0 -120.166,7.8333 -155.5,23.6662 -35.3335,15.8329 -63.1664,36.3333 -83.6668,61.5003 -20.5004,25.166 -34.0001,51.6664 -40.5,79.3329 -9.50034,40.9999 -14.1669,101.5 -14.1669,181.667l0 381.833z" />
      </glyph>
      <glyph
         id="glyph2629"
         horiz-adv-x="666"
         unicode="Y">
        <path
           id="path2631"
           d="M260.667 0l0 301.333 -262.167 414.5 169.5 0 168.501 -283.167 165 283.167 166.5 0 -263.167 -415.5 0 -300.333 -144.166 0z" />
      </glyph>
      <glyph
         id="glyph2633"
         horiz-adv-x="722"
         unicode="R">
        <path
           id="path2635"
           d="M73.1666 0l0 715.833 304.334 0c76.4997,0 132,-6.49987 166.666,-19.3333 34.6663,-12.8334 62.5001,-35.6661 83.3332,-68.5001 20.833,-32.9993 31.1669,-70.4997 31.1669,-112.833 0,-53.667 -15.8329,-98.1663 -47.3334,-133.167 -31.4995,-34.8326 -78.833,-56.9991 -141.667,-65.9995 31.3332,-18.3335 57.1664,-38.333 77.5005,-60.1669 20.3331,-21.8329 47.6661,-60.4995 82.1661,-116.166l87.4998 -139.667 -172.833 0 -104.501 155.834c-37.1659,55.6666 -62.4991,90.6666 -76.1661,105.166 -13.6669,14.5005 -28.1664,24.3334 -43.5004,29.8335 -15.333,5.33373 -39.5001,8.00059 -72.833,8.00059l-29.1663 0 0 -298.834 -144.667 0zm144.667 413.166l106.833 0c69.3336,0 112.667,2.83318 129.999,8.66682 17.1673,5.83364 30.667,16.0002 40.5,30.3334 9.66762,14.3332 14.6668,32.1667 14.6668,53.667 0,24.1661 -6.49987,43.4994 -19.3333,58.3335 -12.8334,14.8331 -30.9996,24.1661 -54.4995,28.1664 -11.6663,1.49975 -46.8335,2.33326 -105.5,2.33326l-112.667 0 0 -181.5z" />
      </glyph>
      <glyph
         id="glyph2637"
         horiz-adv-x="610"
         unicode="T">
        <path
           id="path2639"
           d="M233.833 0l0 594.666 -212.333 0 0 121.167 568.834 0 0 -121.167 -211.833 0 0 -594.666 -144.667 0z" />
      </glyph>
      <glyph
         id="glyph2641"
         horiz-adv-x="666"
         unicode="P">
        <path
           id="path2643"
           d="M72.8334 0l0 715.833 231.833 0c87.8329,0 145.166,-3.66623 171.833,-10.8332 41.0002,-10.6668 75.4997,-34.0004 103.167,-69.9999 27.6662,-36.0004 41.5002,-82.5003 41.5002,-139.334 0,-44.0001 -8.00057,-80.9995 -24,-110.833 -16.0003,-30.0006 -36.1667,-53.5006 -60.8339,-70.6672 -24.4999,-17.0002 -49.4998,-28.3334 -74.8334,-33.8332 -34.4995,-6.83336 -84.4994,-10.3332 -149.999,-10.3332l-94.1671 0 0 -270 -144.5 0zm144.5 594.666l0 -202.999 79.0005 0c56.9996,0 95.1662,3.66623 114.333,11.1659 19.1674,7.50059 34.1668,19.1674 45.1673,35.1668 10.8332,16.0003 16.333,34.5004 16.333,55.6669 0,25.9999 -7.66696,47.4999 -23,64.5001 -15.1667,16.833 -34.6668,27.4998 -57.9995,31.6669 -17.3338,3.33262 -52.0006,4.83256 -104,4.83256l-69.8336 0z" />
      </glyph>
    </font>
    <style
       id="style3102"
       type="text/css">
   
    @font-face { font-family:&quot;Arial&quot;;src:url(&quot;#FontID0&quot;) format(svg)}
    .str5 {stroke:#1F1A17;stroke-width:0.0762}
    .str1 {stroke:#1F1A17;stroke-width:0.0762;stroke-linecap:round;stroke-linejoin:round}
    .str0 {stroke-width:0.6672;stroke-linecap:round;stroke-linejoin:round}
    .str2 {stroke-width:0.7411;stroke-linecap:round;stroke-linejoin:round}
    .str3 {stroke-width:0.7414;stroke-linecap:round;stroke-linejoin:round}
    .str4 {stroke-width:13.5001}
    .str6 {stroke:#1F1A17;stroke-width:0.0762}
    .fil0 {fill:#1F1A17}
    .fil3 {fill:#72706F}
    .fil4 {fill:#AAA9A9}
    .fil2 {fill:white}
    .fil1 {fill:#1F1A17;fill-rule:nonzero}
    .fnt3 {font-weight:bold;font-size:5.6444;font-family:'Arial'}
    .fnt2 {font-weight:bold;font-size:102.784;font-family:'Arial'}
    .fnt1 {font-weight:bold;font-size:102.817;font-family:'Arial'}
    .fnt0 {font-weight:bold;font-size:114.204;font-family:'Arial'}
   
  </style>
    <font
       font-weight="700"
       font-style="normal"
       class="str0"
       font-variant="normal"
       id="font3364"
       horiz-origin-x="0"
       horiz-origin-y="0"
       horiz-adv-x="90"
       vert-origin-x="45"
       vert-origin-y="90"
       vert-adv-y="90"
       style="font-style:normal;font-variant:normal;font-weight:700;stroke-width:0.66720003;stroke-linecap:round;stroke-linejoin:round">
      <font-face
         id="font-face3026"
         font-family="Arial" />
      <missing-glyph
         id="missing-glyph3028">
        <path
           id="path3030"
           d="M0 0z" />
      </missing-glyph>
      <glyph
         id="glyph3032"
         horiz-adv-x="277"
         unicode=" " />
      <glyph
         id="glyph3034"
         horiz-adv-x="277"
         unicode=",">
        <path
           id="path3036"
           d="M68.3336 137.166l137.166 0 0 -98.1661c0,-39.6666 -3.3335,-70.9999 -10.1669,-93.9999 -6.83336,-22.8336 -19.8329,-43.5001 -38.833,-61.6666 -19.0001,-18.3338 -43.1665,-32.6669 -72.4998,-43.0001l-26.8335 56.6659c27.6662,9.1669 47.3336,21.6673 58.9995,37.5003 11.834,16.0003 18.0002,37.833 18.6674,65.5001l-66.5001 0 0 137.166z" />
      </glyph>
      <glyph
         id="glyph3038"
         horiz-adv-x="500"
         unicode="”">
        <path
           id="path3040"
           d="M293 715.833l137.166 0 0 -98.667c0,-39.6666 -3.49987,-70.9999 -10.4996,-93.6663 -7.00061,-22.8336 -20.0001,-43.5001 -39.0002,-61.833 -19.1665,-18.3338 -43.1665,-32.8332 -71.9999,-43.1673l-26.9998 57.1668c27.4998,9.00053 46.9999,21.6673 58.8331,38.0003 11.9995,16.333 18.0002,38.0003 18.3329,65.0001l-65.8328 0 0 137.166zm-230.5 0l137.166 0 0 -98.667c0,-39.6666 -3.3335,-70.9999 -10.1669,-93.6663 -6.83336,-22.8336 -19.8329,-43.5001 -38.833,-61.833 -19.0001,-18.3338 -43.1665,-32.8332 -72.4998,-43.1673l-26.8335 57.1668c27.6662,9.00053 47.3336,21.6673 59.0004,38.0003 11.6659,16.333 17.9993,38.0003 18.4993,65.0001l-66.3328 0 0 137.166z" />
      </glyph>
      <glyph
         id="glyph3042"
         horiz-adv-x="500"
         unicode="“">
        <path
           id="path3044"
           d="M201.666 425.833l-137.166 0 0 98.167c0,39.6666 3.49987,70.9999 10.4996,93.9999 7.00061,22.8336 19.8337,43.5001 38.8339,61.6666 18.8329,18.3338 42.8329,32.5005 72.1662,43.0001l26.8335 -56.6668c-27.3334,-9.16602 -46.8336,-21.8328 -58.8331,-37.9994 -11.8332,-16.3339 -18.1666,-38.0003 -18.6665,-65.0001l66.3328 0 0 -137.167zm229 0l-137.166 0 0 98.167c0,40.0002 3.49987,71.3335 10.4996,94.1671 7.00061,22.8327 20.0001,43.3328 39.0002,61.4994 19.0001,18.3338 43.0001,32.5005 71.9999,43.0001l26.8335 -56.6668c-27.3334,-9.16602 -46.8336,-21.8328 -58.8331,-37.9994 -11.8332,-16.3339 -18.1666,-38.0003 -18.6665,-65.0001l66.3328 0 0 -137.167z" />
      </glyph>
      <glyph
         id="glyph3046"
         horiz-adv-x="610"
         unicode="L">
        <path
           id="path3048"
           d="M76.6069 0.0354333l0.0177167 709.712 144.515 0.141733 0.0885834 -589.327 359.276 0 -0.141733 -120.615 -503.756 0.0885834z" />
      </glyph>
      <glyph
         id="glyph3050"
         horiz-adv-x="666"
         unicode="E">
        <path
           id="path3052"
           d="M72.6915 -0.0354333l-0.0354333 715.754 530.792 0.0354333 0.05315 -121.164 -386.224 0.0177167 -0.05315 -158.582 359.383 0.05315 -0.0354333 -120.633 -359.383 -0.0708667 0.1063 -194.742 399.794 0.0354333 -0.0354333 -120.651 -544.363 -0.05315z" />
      </glyph>
      <glyph
         id="glyph3054"
         horiz-adv-x="610"
         unicode="F">
        <path
           id="path3056"
           d="M73.6665 0l0 715.833 490.833 0 0 -121.166 -346.166 0 0 -169.333 298.833 0 0 -121.167 -298.833 0 0 -304.166 -144.667 0z" />
      </glyph>
      <glyph
         id="glyph3058"
         horiz-adv-x="722"
         unicode="N">
        <path
           id="path3060"
           d="M74.2506 0.0708667l-0.0177167 715.754 140.6 -0.0177167 292.963 -478.084 -0.0177167 478.12 134.222 -0.0354333 0.0177167 -715.754 -144.958 -0.0177167 -288.622 466.728 0.0354333 -466.728 -134.222 0.0354333z" />
      </glyph>
      <glyph
         id="glyph3062"
         horiz-adv-x="777"
         unicode="O">
        <path
           id="path3064"
           d="M43.4059 353.465c0.05315,72.8864 11.0021,134.151 32.7936,183.669 16.2816,36.4964 38.4098,69.095 66.5261,98.0972 28.2581,28.8959 59.0674,50.4394 92.6051,64.5064 44.6106,18.886 96.0952,28.2049 154.259,28.2581 105.556,-0.0354333 189.976,-32.6695 253.295,-98.1504 63.1954,-65.3745 94.8551,-156.35 94.8728,-272.819 0.0708667,-115.743 -31.4648,-206.063 -94.235,-271.402 -62.6993,-65.1796 -146.871,-97.8315 -251.913,-97.9023 -106.53,0.0354333 -191.021,32.5278 -253.862,97.5126 -62.8588,64.9848 -94.3413,154.295 -94.3413,268.23zm149.015 4.96067c-0.0885834,-81.0361 18.7797,-142.531 56.0556,-184.377 37.4885,-41.7759 84.9869,-62.7347 142.548,-62.6993 57.7209,-0.0708667 105.007,20.7108 142.017,62.2387 36.7798,41.4747 55.3823,103.802 55.3115,186.875 0,81.851 -17.9647,143.204 -53.8764,183.456 -36.0534,40.3232 -83.7467,60.6087 -143.399,60.6796 -59.5812,-0.15945 -107.593,-20.5159 -144.037,-61.4237 -36.4432,-40.9078 -54.7445,-102.438 -54.6205,-184.749z" />
      </glyph>
      <glyph
         id="glyph3066"
         horiz-adv-x="722"
         unicode="H">
        <path
           id="path3068"
           d="M73.1699 0.05315l0.141733 715.399 144.391 0.0885834 -0.05315 -281.731 283.095 0.124017 -0.05315 281.518 144.55 0.141733 -0.0708667 -715.559 -144.391 -0.0708667 0.0177167 312.947 -283.095 -0.124017 -0.0708667 -312.806 -144.462 0.0708667z" />
      </glyph>
      <glyph
         id="glyph3070"
         horiz-adv-x="277"
         unicode="I">
        <path
           id="path3072"
           d="M68.3336 0l0 715.833 144.5 0 0 -715.833 -144.5 0z" />
      </glyph>
      <glyph
         id="glyph3074"
         horiz-adv-x="722"
         unicode="A">
        <path
           id="path3076"
           d="M718.163 0.05315l-157.218 -0.124017 -62.469 162.604 -286.124 0 -59.032 -162.533 -153.32 0 278.843 715.825 152.806 -0.1063 286.514 -715.665zm-266.016 283.112l-98.6642 265.644 -96.733 -265.626 195.397 -0.0177167z" />
      </glyph>
      <glyph
         id="glyph3078"
         horiz-adv-x="610"
         unicode="Z">
        <path
           id="path3080"
           d="M10.667 0l0 130.334 376 464.333 -333.5 0 0 121.166 523.999 0 0 -112.333 -392.166 -482.833 407.333 0 0 -120.667 -581.666 0z" />
      </glyph>
      <glyph
         id="glyph3082"
         horiz-adv-x="722"
         unicode="U">
        <path
           id="path3084"
           d="M71.8332 715.833l144.5 0 0 -387.667c0,-61.4993 1.83335,-101.499 5.33373,-119.667 6.16627,-29.3326 21.0003,-52.8335 44.1666,-70.4997 23.3336,-17.8336 55.1667,-26.6667 95.5004,-26.6667 40.9999,0 71.9995,8.33322 92.8325,25.1669 20.834,16.6664 33.3339,37.3332 37.5005,61.6666 4.33292,24.4997 6.33356,64.9997 6.33356,121.666l0 396 144.5 0 0 -376c0,-86 -3.83398,-146.667 -11.6673,-182.167 -7.8333,-35.4998 -22.1665,-65.3333 -43.1658,-89.834 -21.0003,-24.3325 -49.1668,-43.833 -84.1667,-58.3325 -35.1672,-14.5005 -81.1672,-21.6666 -137.834,-21.6666 -68.3338,0 -120.166,7.8333 -155.5,23.6662 -35.3335,15.8329 -63.1664,36.3333 -83.6668,61.5003 -20.5004,25.166 -34.0001,51.6664 -40.5,79.3329 -9.50034,40.9999 -14.1669,101.5 -14.1669,181.667l0 381.833z" />
      </glyph>
      <glyph
         id="glyph3086"
         horiz-adv-x="666"
         unicode="Y">
        <path
           id="path3088"
           d="M260.667 0l0 301.333 -262.167 414.5 169.5 0 168.501 -283.167 165 283.167 166.5 0 -263.167 -415.5 0 -300.333 -144.166 0z" />
      </glyph>
      <glyph
         id="glyph3090"
         horiz-adv-x="722"
         unicode="R">
        <path
           id="path3092"
           d="M73.1666 0l0 715.833 304.334 0c76.4997,0 132,-6.49987 166.666,-19.3333 34.6663,-12.8334 62.5001,-35.6661 83.3332,-68.5001 20.833,-32.9993 31.1669,-70.4997 31.1669,-112.833 0,-53.667 -15.8329,-98.1663 -47.3334,-133.167 -31.4995,-34.8326 -78.833,-56.9991 -141.667,-65.9995 31.3332,-18.3335 57.1664,-38.333 77.5005,-60.1669 20.3331,-21.8329 47.6661,-60.4995 82.1661,-116.166l87.4998 -139.667 -172.833 0 -104.501 155.834c-37.1659,55.6666 -62.4991,90.6666 -76.1661,105.166 -13.6669,14.5005 -28.1664,24.3334 -43.5004,29.8335 -15.333,5.33373 -39.5001,8.00059 -72.833,8.00059l-29.1663 0 0 -298.834 -144.667 0zm144.667 413.166l106.833 0c69.3336,0 112.667,2.83318 129.999,8.66682 17.1673,5.83364 30.667,16.0002 40.5,30.3334 9.66762,14.3332 14.6668,32.1667 14.6668,53.667 0,24.1661 -6.49987,43.4994 -19.3333,58.3335 -12.8334,14.8331 -30.9996,24.1661 -54.4995,28.1664 -11.6663,1.49975 -46.8335,2.33326 -105.5,2.33326l-112.667 0 0 -181.5z" />
      </glyph>
      <glyph
         id="glyph3094"
         horiz-adv-x="610"
         unicode="T">
        <path
           id="path3096"
           d="M233.825 0.0708667l0.0354333 594.642 -212.458 -0.1063 0.15945 121.164 568.617 -0.0708667 0 -121.005 -211.785 -0.0708667 -0.0354333 -594.66 -144.533 0.1063z" />
      </glyph>
      <glyph
         id="glyph3098"
         horiz-adv-x="666"
         unicode="P">
        <path
           id="path3100"
           d="M72.7447 -0.0708667l0 715.931 231.947 -0.0885834c87.8038,0.0177167 145.153,-3.5079 171.887,-10.754 40.9964,-10.6123 75.2959,-33.9806 103.04,-69.9454 27.5849,-35.9826 41.5279,-82.4534 41.4747,-139.43 -0.0708667,-43.9196 -7.91935,-80.9475 -23.8644,-110.942 -15.9804,-29.8349 -36.2838,-53.4158 -60.7859,-70.5655 -24.697,-17.008 -49.6421,-28.3467 -75.0478,-33.8743 -34.4766,-6.8032 -84.3845,-10.2048 -149.919,-10.2225l-94.1818 -0.0177167 0.05315 -269.967 -144.604 -0.124017zm144.621 594.713l-0.1063 -203.122 79.0872 0.1063c56.9945,-0.05315 95.1385,3.79137 114.29,11.1615 19.1517,7.5473 34.1932,19.1872 45.2307,35.2562 10.9135,15.8919 16.3348,34.4058 16.2993,55.5063 -0.0708667,26.1498 -7.68904,47.6224 -22.8722,64.471 -15.3604,16.9903 -34.7247,27.514 -58.1284,31.766 -17.2915,3.38388 -51.9807,4.92524 -104.103,4.97839l-69.6974 -0.124017z" />
      </glyph>
    </font>
    <style
       id="style3556"
       type="text/css">
   
    .fil0 {fill:#1F1A17}
    .fil2 {fill:#969594}
    .fil3 {fill:#C2C1C1}
    .fil1 {fill:white}
   
  </style>
    <style
       id="style5278"
       type="text/css">
   
    @font-face { font-family:&quot;Arial&quot;;src:url(&quot;#FontID0&quot;) format(svg)}
    .str5 {stroke:#1F1A17;stroke-width:0.0762}
    .str1 {stroke:#1F1A17;stroke-width:0.0762;stroke-linecap:round;stroke-linejoin:round}
    .str0 {stroke-width:0.6672;stroke-linecap:round;stroke-linejoin:round}
    .str2 {stroke-width:0.7411;stroke-linecap:round;stroke-linejoin:round}
    .str3 {stroke-width:0.7414;stroke-linecap:round;stroke-linejoin:round}
    .str4 {stroke-width:13.5001}
    .fil5 {fill:none;fill-rule:nonzero}
    .fil0 {fill:#1F1A17}
    .fil3 {fill:#72706F}
    .fil4 {fill:#AAA9A9}
    .fil2 {fill:white}
    .fil1 {fill:#1F1A17;fill-rule:nonzero}
    .fnt3 {font-weight:bold;font-size:5.6444;font-family:'Arial'}
    .fnt2 {font-weight:bold;font-size:102.784;font-family:'Arial'}
    .fnt1 {font-weight:bold;font-size:102.817;font-family:'Arial'}
    .fnt0 {font-weight:bold;font-size:114.204;font-family:'Arial'}
   
  </style>
    <font
       font-weight="700"
       font-style="normal"
       class="str0"
       font-variant="normal"
       id="font5545"
       horiz-origin-x="0"
       horiz-origin-y="0"
       horiz-adv-x="90"
       vert-origin-x="45"
       vert-origin-y="90"
       vert-adv-y="90"
       style="font-style:normal;font-variant:normal;font-weight:700;stroke-width:0.66720003;stroke-linecap:round;stroke-linejoin:round">
      <font-face
         id="font-face5202"
         font-family="Arial" />
      <missing-glyph
         id="missing-glyph5204">
        <path
           id="path5206"
           d="M0 0z" />
      </missing-glyph>
      <glyph
         id="glyph5208"
         horiz-adv-x="277"
         unicode=" " />
      <glyph
         id="glyph5210"
         horiz-adv-x="277"
         unicode=",">
        <path
           id="path5212"
           d="M68.3336 137.166l137.166 0 0 -98.1661c0,-39.6666 -3.3335,-70.9999 -10.1669,-93.9999 -6.83336,-22.8336 -19.8329,-43.5001 -38.833,-61.6666 -19.0001,-18.3338 -43.1665,-32.6669 -72.4998,-43.0001l-26.8335 56.6659c27.6662,9.1669 47.3336,21.6673 58.9995,37.5003 11.834,16.0003 18.0002,37.833 18.6674,65.5001l-66.5001 0 0 137.166z" />
      </glyph>
      <glyph
         id="glyph5214"
         horiz-adv-x="500"
         unicode="”">
        <path
           id="path5216"
           d="M293 715.833l137.166 0 0 -98.667c0,-39.6666 -3.49987,-70.9999 -10.4996,-93.6663 -7.00061,-22.8336 -20.0001,-43.5001 -39.0002,-61.833 -19.1665,-18.3338 -43.1665,-32.8332 -71.9999,-43.1673l-26.9998 57.1668c27.4998,9.00053 46.9999,21.6673 58.8331,38.0003 11.9995,16.333 18.0002,38.0003 18.3329,65.0001l-65.8328 0 0 137.166zm-230.5 0l137.166 0 0 -98.667c0,-39.6666 -3.3335,-70.9999 -10.1669,-93.6663 -6.83336,-22.8336 -19.8329,-43.5001 -38.833,-61.833 -19.0001,-18.3338 -43.1665,-32.8332 -72.4998,-43.1673l-26.8335 57.1668c27.6662,9.00053 47.3336,21.6673 59.0004,38.0003 11.6659,16.333 17.9993,38.0003 18.4993,65.0001l-66.3328 0 0 137.166z" />
      </glyph>
      <glyph
         id="glyph5218"
         horiz-adv-x="500"
         unicode="“">
        <path
           id="path5220"
           d="M201.666 425.833l-137.166 0 0 98.167c0,39.6666 3.49987,70.9999 10.4996,93.9999 7.00061,22.8336 19.8337,43.5001 38.8339,61.6666 18.8329,18.3338 42.8329,32.5005 72.1662,43.0001l26.8335 -56.6668c-27.3334,-9.16602 -46.8336,-21.8328 -58.8331,-37.9994 -11.8332,-16.3339 -18.1666,-38.0003 -18.6665,-65.0001l66.3328 0 0 -137.167zm229 0l-137.166 0 0 98.167c0,40.0002 3.49987,71.3335 10.4996,94.1671 7.00061,22.8327 20.0001,43.3328 39.0002,61.4994 19.0001,18.3338 43.0001,32.5005 71.9999,43.0001l26.8335 -56.6668c-27.3334,-9.16602 -46.8336,-21.8328 -58.8331,-37.9994 -11.8332,-16.3339 -18.1666,-38.0003 -18.6665,-65.0001l66.3328 0 0 -137.167z" />
      </glyph>
      <glyph
         id="glyph5222"
         horiz-adv-x="610"
         unicode="L">
        <path
           id="path5224"
           d="M76.6069 0.0354333l0.0177167 709.712 144.515 0.141733 0.0885834 -589.327 359.276 0 -0.141733 -120.615 -503.756 0.0885834z" />
      </glyph>
      <glyph
         id="glyph5226"
         horiz-adv-x="666"
         unicode="E">
        <path
           id="path5228"
           d="M72.6915 -0.0354333l-0.0354333 715.754 530.792 0.0354333 0.05315 -121.164 -386.224 0.0177167 -0.05315 -158.582 359.383 0.05315 -0.0354333 -120.633 -359.383 -0.0708667 0.1063 -194.742 399.794 0.0354333 -0.0354333 -120.651 -544.363 -0.05315z" />
      </glyph>
      <glyph
         id="glyph5230"
         horiz-adv-x="610"
         unicode="F">
        <path
           id="path5232"
           d="M73.6665 0l0 715.833 490.833 0 0 -121.166 -346.166 0 0 -169.333 298.833 0 0 -121.167 -298.833 0 0 -304.166 -144.667 0z" />
      </glyph>
      <glyph
         id="glyph5234"
         horiz-adv-x="722"
         unicode="N">
        <path
           id="path5236"
           d="M74.2506 0.0708667l-0.0177167 715.754 140.6 -0.0177167 292.963 -478.084 -0.0177167 478.12 134.222 -0.0354333 0.0177167 -715.754 -144.958 -0.0177167 -288.622 466.728 0.0354333 -466.728 -134.222 0.0354333z" />
      </glyph>
      <glyph
         id="glyph5238"
         horiz-adv-x="777"
         unicode="O">
        <path
           id="path5240"
           d="M43.4059 353.465c0.05315,72.8864 11.0021,134.151 32.7936,183.669 16.2816,36.4964 38.4098,69.095 66.5261,98.0972 28.2581,28.8959 59.0674,50.4394 92.6051,64.5064 44.6106,18.886 96.0952,28.2049 154.259,28.2581 105.556,-0.0354333 189.976,-32.6695 253.295,-98.1504 63.1954,-65.3745 94.8551,-156.35 94.8728,-272.819 0.0708667,-115.743 -31.4648,-206.063 -94.235,-271.402 -62.6993,-65.1796 -146.871,-97.8315 -251.913,-97.9023 -106.53,0.0354333 -191.021,32.5278 -253.862,97.5126 -62.8588,64.9848 -94.3413,154.295 -94.3413,268.23zm149.015 4.96067c-0.0885834,-81.0361 18.7797,-142.531 56.0556,-184.377 37.4885,-41.7759 84.9869,-62.7347 142.548,-62.6993 57.7209,-0.0708667 105.007,20.7108 142.017,62.2387 36.7798,41.4747 55.3823,103.802 55.3115,186.875 0,81.851 -17.9647,143.204 -53.8764,183.456 -36.0534,40.3232 -83.7467,60.6087 -143.399,60.6796 -59.5812,-0.15945 -107.593,-20.5159 -144.037,-61.4237 -36.4432,-40.9078 -54.7445,-102.438 -54.6205,-184.749z" />
      </glyph>
      <glyph
         id="glyph5242"
         horiz-adv-x="722"
         unicode="H">
        <path
           id="path5244"
           d="M73.1699 0.05315l0.141733 715.399 144.391 0.0885834 -0.05315 -281.731 283.095 0.124017 -0.05315 281.518 144.55 0.141733 -0.0708667 -715.559 -144.391 -0.0708667 0.0177167 312.947 -283.095 -0.124017 -0.0708667 -312.806 -144.462 0.0708667z" />
      </glyph>
      <glyph
         id="glyph5246"
         horiz-adv-x="277"
         unicode="I">
        <path
           id="path5248"
           d="M68.3336 0l0 715.833 144.5 0 0 -715.833 -144.5 0z" />
      </glyph>
      <glyph
         id="glyph5250"
         horiz-adv-x="722"
         unicode="A">
        <path
           id="path5252"
           d="M718.163 0.05315l-157.218 -0.124017 -62.469 162.604 -286.124 0 -59.032 -162.533 -153.32 0 278.843 715.825 152.806 -0.1063 286.514 -715.665zm-266.016 283.112l-98.6642 265.644 -96.733 -265.626 195.397 -0.0177167z" />
      </glyph>
      <glyph
         id="glyph5254"
         horiz-adv-x="610"
         unicode="Z">
        <path
           id="path5256"
           d="M10.667 0l0 130.334 376 464.333 -333.5 0 0 121.166 523.999 0 0 -112.333 -392.166 -482.833 407.333 0 0 -120.667 -581.666 0z" />
      </glyph>
      <glyph
         id="glyph5258"
         horiz-adv-x="722"
         unicode="U">
        <path
           id="path5260"
           d="M71.8332 715.833l144.5 0 0 -387.667c0,-61.4993 1.83335,-101.499 5.33373,-119.667 6.16627,-29.3326 21.0003,-52.8335 44.1666,-70.4997 23.3336,-17.8336 55.1667,-26.6667 95.5004,-26.6667 40.9999,0 71.9995,8.33322 92.8325,25.1669 20.834,16.6664 33.3339,37.3332 37.5005,61.6666 4.33292,24.4997 6.33356,64.9997 6.33356,121.666l0 396 144.5 0 0 -376c0,-86 -3.83398,-146.667 -11.6673,-182.167 -7.8333,-35.4998 -22.1665,-65.3333 -43.1658,-89.834 -21.0003,-24.3325 -49.1668,-43.833 -84.1667,-58.3325 -35.1672,-14.5005 -81.1672,-21.6666 -137.834,-21.6666 -68.3338,0 -120.166,7.8333 -155.5,23.6662 -35.3335,15.8329 -63.1664,36.3333 -83.6668,61.5003 -20.5004,25.166 -34.0001,51.6664 -40.5,79.3329 -9.50034,40.9999 -14.1669,101.5 -14.1669,181.667l0 381.833z" />
      </glyph>
      <glyph
         id="glyph5262"
         horiz-adv-x="666"
         unicode="Y">
        <path
           id="path5264"
           d="M260.667 0l0 301.333 -262.167 414.5 169.5 0 168.501 -283.167 165 283.167 166.5 0 -263.167 -415.5 0 -300.333 -144.166 0z" />
      </glyph>
      <glyph
         id="glyph5266"
         horiz-adv-x="722"
         unicode="R">
        <path
           id="path5268"
           d="M73.1666 0l0 715.833 304.334 0c76.4997,0 132,-6.49987 166.666,-19.3333 34.6663,-12.8334 62.5001,-35.6661 83.3332,-68.5001 20.833,-32.9993 31.1669,-70.4997 31.1669,-112.833 0,-53.667 -15.8329,-98.1663 -47.3334,-133.167 -31.4995,-34.8326 -78.833,-56.9991 -141.667,-65.9995 31.3332,-18.3335 57.1664,-38.333 77.5005,-60.1669 20.3331,-21.8329 47.6661,-60.4995 82.1661,-116.166l87.4998 -139.667 -172.833 0 -104.501 155.834c-37.1659,55.6666 -62.4991,90.6666 -76.1661,105.166 -13.6669,14.5005 -28.1664,24.3334 -43.5004,29.8335 -15.333,5.33373 -39.5001,8.00059 -72.833,8.00059l-29.1663 0 0 -298.834 -144.667 0zm144.667 413.166l106.833 0c69.3336,0 112.667,2.83318 129.999,8.66682 17.1673,5.83364 30.667,16.0002 40.5,30.3334 9.66762,14.3332 14.6668,32.1667 14.6668,53.667 0,24.1661 -6.49987,43.4994 -19.3333,58.3335 -12.8334,14.8331 -30.9996,24.1661 -54.4995,28.1664 -11.6663,1.49975 -46.8335,2.33326 -105.5,2.33326l-112.667 0 0 -181.5z" />
      </glyph>
      <glyph
         id="glyph5270"
         horiz-adv-x="610"
         unicode="T">
        <path
           id="path5272"
           d="M233.825 0.0708667l0.0354333 594.642 -212.458 -0.1063 0.15945 121.164 568.617 -0.0708667 0 -121.005 -211.785 -0.0708667 -0.0354333 -594.66 -144.533 0.1063z" />
      </glyph>
      <glyph
         id="glyph5274"
         horiz-adv-x="666"
         unicode="P">
        <path
           id="path5276"
           d="M72.7447 -0.0708667l0 715.931 231.947 -0.0885834c87.8038,0.0177167 145.153,-3.5079 171.887,-10.754 40.9964,-10.6123 75.2959,-33.9806 103.04,-69.9454 27.5849,-35.9826 41.5279,-82.4534 41.4747,-139.43 -0.0708667,-43.9196 -7.91935,-80.9475 -23.8644,-110.942 -15.9804,-29.8349 -36.2838,-53.4158 -60.7859,-70.5655 -24.697,-17.008 -49.6421,-28.3467 -75.0478,-33.8743 -34.4766,-6.8032 -84.3845,-10.2048 -149.919,-10.2225l-94.1818 -0.0177167 0.05315 -269.967 -144.604 -0.124017zm144.621 594.713l-0.1063 -203.122 79.0872 0.1063c56.9945,-0.05315 95.1385,3.79137 114.29,11.1615 19.1517,7.5473 34.1932,19.1872 45.2307,35.2562 10.9135,15.8919 16.3348,34.4058 16.2993,55.5063 -0.0708667,26.1498 -7.68904,47.6224 -22.8722,64.471 -15.3604,16.9903 -34.7247,27.514 -58.1284,31.766 -17.2915,3.38388 -51.9807,4.92524 -104.103,4.97839l-69.6974 -0.124017z" />
      </glyph>
    </font>
    <style
       id="style5778"
       type="text/css">
   
    @font-face { font-family:&quot;Arial Black&quot;;src:url(&quot;#FontID0&quot;) format(svg)}
    .str1 {stroke:#1F1A17;stroke-width:0.0762}
    .str0 {stroke:#838281;stroke-width:0.0762}
    .fil0 {fill:#1F1A17}
    .fil3 {fill:#838281}
    .fil2 {fill:#131516}
    .fil1 {fill:white}
    .fnt0 {font-weight:normal;font-size:28.2893;font-family:'Arial Black'}
   
  </style>
    <font
       font-weight="400"
       font-style="normal"
       font-variant="normal"
       id="font5948"
       horiz-origin-x="0"
       horiz-origin-y="0"
       horiz-adv-x="90"
       vert-origin-x="45"
       vert-origin-y="90"
       vert-adv-y="90"
       style="font-style:normal;font-variant:normal;font-weight:400">
      <font-face
         id="font-face5746"
         font-family="Arial Black" />
      <missing-glyph
         id="missing-glyph5748">
        <path
           id="path5750"
           d="M0 0z" />
      </missing-glyph>
      <glyph
         id="glyph5752"
         horiz-adv-x="363"
         unicode=" " />
      <glyph
         id="glyph5754"
         horiz-adv-x="786"
         unicode="E">
        <path
           id="path5756"
           d="M79.1748 779.754l645.788 -0.0424189 0.00706981 -166.409 -404.227 0.0459538 -0.0212094 -124.001 374.976 0.0636283 0.00706981 -159.064 -374.979 -0.0636283 -0.0353491 -153.648 415.949 -0.169675 -0.0989774 -176.455 -657.277 -0.113117 -0.0883726 779.857z" />
      </glyph>
      <glyph
         id="glyph5758"
         horiz-adv-x="423"
         unicode="I">
        <path
           id="path5760"
           d="M89.3271 779.726l241.455 -0.127257 0.0106047 -779.592 -241.537 -0.0353491 0.0706981 779.754z" />
      </glyph>
      <glyph
         id="glyph5762"
         horiz-adv-x="907"
         unicode="G">
        <path
           id="path5764"
           d="M471.786 282.418l0.144931 162.383 372.24 -0.0530236 0.038884 -332.419c-71.2884,-48.6368 -134.305,-81.7023 -189.057,-99.3839 -54.9254,-17.4872 -119.763,-26.275 -195.038,-26.1477 -92.565,-0.0600934 -167.933,15.7127 -226.287,47.3182 -58.3648,31.4288 -103.537,78.5315 -135.726,140.954 -32.0086,62.4158 -48.0782,133.998 -48.0217,214.915 -0.0848377,85.1099 17.4306,159.113 52.5499,222.013 35.1228,62.8966 86.5486,110.756 154.267,143.393 52.9706,25.2286 123.997,37.6927 213.289,37.7387 86.1951,0.0282792 150.711,-7.7167 193.349,-23.4081 42.8324,-15.5182 78.2946,-39.7429 106.401,-72.4938 28.2792,-32.9418 49.3826,-74.4204 63.653,-124.81l-232.392 -41.468c-9.73513,29.4246 -25.8296,51.9066 -48.8383,67.4813 -22.8249,15.5607 -52.0515,23.4576 -87.5101,23.4965 -52.7443,-0.144931 -94.8026,-18.4911 -126.186,-55.2152 -31.3758,-36.5439 -47.1486,-94.6365 -47.1309,-174.105 -0.0565585,-84.3747 15.8753,-144.673 47.6187,-180.888 31.7435,-36.2151 75.9015,-54.1689 132.637,-54.2325 27.0951,0.0353491 52.762,3.96263 77.1635,11.5945 24.4156,7.81214 52.5782,21.2483 84.1095,39.9621l0.0318141 73.4659 -161.305 -0.0919075z" />
      </glyph>
      <glyph
         id="glyph5766"
         horiz-adv-x="907"
         unicode="O">
        <path
           id="path5768"
           d="M49.5735 389.331c-0.0989774,127.426 35.3278,226.344 106.259,297.406 70.889,70.8112 169.721,106.252 296.239,106.365 129.749,-0.0106047 229.801,-34.84 300.011,-104.594 70.3552,-69.6482 105.344,-167.236 105.361,-292.701 -0.00353491,-91.1369 -15.2319,-165.95 -46.0492,-224.254 -30.5628,-58.3436 -75.0566,-103.693 -132.98,-136.122 -57.9194,-32.4292 -130.198,-48.8029 -216.647,-48.7605 -88.0156,0.0282792 -160.813,14.0265 -218.397,41.9982 -57.6932,28.1202 -104.389,72.31 -140.155,132.969 -35.7662,60.659 -53.6457,136.557 -53.6422,227.694zm240.886 -0.968564c0.00353491,-78.786 14.5815,-135.313 43.8434,-169.718 29.2655,-34.4088 69.1781,-51.652 119.377,-51.5425 51.8712,-0.0247443 91.9747,16.7661 120.201,50.5209 28.3358,33.6028 42.585,94.0108 42.638,181.372 -0.0848377,73.3387 -14.8537,127.03 -44.3419,160.824 -29.7462,33.8326 -69.9522,50.8638 -120.66,50.8319 -48.4918,0.0106047 -87.6197,-17.1938 -116.984,-51.546 -29.5094,-34.4583 -44.1015,-91.3031 -44.0732,-170.743z" />
      </glyph>
      <glyph
         id="glyph5770"
         horiz-adv-x="847"
         unicode="R">
        <path
           id="path5772"
           d="M82.9395 0.0212094l0.0706981 779.641 401.484 0.116652c74.6077,-0.0459538 131.325,-6.48655 170.778,-19.1203 39.4001,-12.807 71.1541,-36.4625 95.2197,-71.1329 24.1116,-34.4971 36.1974,-76.6898 36.1727,-126.178 0.0600934,-43.2778 -9.15541,-80.6878 -27.5935,-112.049 -18.4416,-31.3617 -43.8576,-56.7564 -76.1313,-76.407 -20.5166,-12.2555 -48.8135,-22.6552 -84.5655,-30.7254 28.8024,-9.58313 49.6725,-19.1557 62.7835,-28.7741 8.77364,-6.29213 21.6584,-20.0005 38.5234,-40.8953 16.8686,-20.8948 28.0778,-37.1448 33.7301,-48.3999l116.525 -226.107 -272.22 0.0353491 -128.713 238.292c-16.4833,30.7961 -30.9552,50.8178 -43.7692,60.157 -17.3493,11.9657 -36.9751,17.9715 -58.8774,18.0174l-21.3756 -0.102512 -0.0530236 -316.424 -241.989 0.0565585zm241.982 463.737l101.674 0.127257c10.9264,-0.109582 32.157,3.43946 63.8687,10.5906 15.8434,3.20262 28.9473,11.347 39.1349,24.4863 9.9649,13.0085 15.0693,28.1697 15.034,45.1832 0.0247443,25.119 -8.03837,44.4338 -24.0161,57.8947 -15.7515,13.5846 -45.7523,20.2974 -89.7795,20.2656l-105.814 -0.074233 -0.102512 -158.473z" />
      </glyph>
      <glyph
         id="glyph5774"
         horiz-adv-x="786"
         unicode="S">
        <path
           id="path5776"
           d="M37.7599 258.055l229.338 14.3694c4.99482,-37.3463 15.0233,-65.7316 30.333,-85.2407 24.7302,-31.549 60.1287,-47.3006 106.358,-47.1839 34.285,-0.0424189 60.8251,7.92526 79.546,24.0692 18.4805,16.2323 27.8445,34.8224 27.9364,56.106 -0.0141396,20.2303 -8.86201,38.3467 -26.7097,54.2714 -17.6781,15.999 -58.7819,31.0966 -123.308,45.2892 -105.786,23.6096 -181.047,55.2364 -226.114,94.7355 -45.3953,39.3435 -68.1565,89.4437 -68.1176,150.375 -0.0424189,40.054 11.7182,77.9977 34.7905,113.601 23.2349,35.6813 58.2835,63.6495 104.828,84.1484 46.6219,20.3398 110.597,30.5345 191.758,30.5098 99.7692,0.0353491 175.713,-18.4487 227.913,-55.6253 52.3626,-37.0953 83.4167,-95.9515 93.4735,-176.82l-227.199 -13.3725c-6.02348,35.2607 -18.7315,60.7933 -37.9578,76.6756 -19.4667,15.9672 -46.0598,24.0055 -80.101,23.9596 -28.0318,-0.0459538 -49.1529,-5.88562 -63.3738,-17.929 -14.1326,-11.7995 -21.1918,-26.3103 -21.3296,-43.2071 -0.0141396,-12.4287 6.01641,-23.645 17.6887,-33.6311 11.34,-10.1416 38.2901,-19.8131 80.868,-28.6151 105.16,-22.6941 180.817,-45.724 226.329,-68.9837 45.5084,-23.2597 78.7648,-52.0373 99.4334,-86.4779 20.7605,-34.2037 31.1602,-72.8332 31.1354,-115.326 -0.0706981,-50.125 -13.9169,-96.054 -41.4786,-138.36 -27.6359,-42.1431 -66.3714,-74.233 -115.956,-95.9515 -49.7467,-21.7962 -112.361,-32.758 -187.919,-32.7262 -132.428,-0.0353491 -224.343,25.6281 -275.355,76.5802 -51.0865,51.1183 -80.108,115.931 -86.8102,194.759z" />
      </glyph>
    </font>
    <style
       id="style6164"
       type="text/css">
   
    @font-face { font-family:&quot;Arial Black&quot;;src:url(&quot;#FontID0&quot;) format(svg)}
    .fil0 {fill:#1F1A17}
    .fnt0 {font-weight:normal;font-size:28.2893;font-family:'Arial Black'}
   
  </style>
    <font
       font-weight="400"
       font-style="normal"
       font-variant="normal"
       id="font6222"
       horiz-origin-x="0"
       horiz-origin-y="0"
       horiz-adv-x="90"
       vert-origin-x="45"
       vert-origin-y="90"
       vert-adv-y="90"
       style="font-style:normal;font-variant:normal;font-weight:400">
      <font-face
         id="font-face6132"
         font-family="Arial Black" />
      <missing-glyph
         id="missing-glyph6134">
        <path
           id="path6136"
           d="M0 0z" />
      </missing-glyph>
      <glyph
         id="glyph6138"
         horiz-adv-x="363"
         unicode=" " />
      <glyph
         id="glyph6140"
         horiz-adv-x="786"
         unicode="E">
        <path
           id="path6142"
           d="M79.1748 779.754l645.788 -0.0424189 0.00706981 -166.409 -404.227 0.0459538 -0.0212094 -124.001 374.976 0.0636283 0.00706981 -159.064 -374.979 -0.0636283 -0.0353491 -153.648 415.949 -0.169675 -0.0989774 -176.455 -657.277 -0.113117 -0.0883726 779.857z" />
      </glyph>
      <glyph
         id="glyph6144"
         horiz-adv-x="423"
         unicode="I">
        <path
           id="path6146"
           d="M89.3271 779.726l241.455 -0.127257 0.0106047 -779.592 -241.537 -0.0353491 0.0706981 779.754z" />
      </glyph>
      <glyph
         id="glyph6148"
         horiz-adv-x="907"
         unicode="G">
        <path
           id="path6150"
           d="M471.786 282.418l0.144931 162.383 372.24 -0.0530236 0.038884 -332.419c-71.2884,-48.6368 -134.305,-81.7023 -189.057,-99.3839 -54.9254,-17.4872 -119.763,-26.275 -195.038,-26.1477 -92.565,-0.0600934 -167.933,15.7127 -226.287,47.3182 -58.3648,31.4288 -103.537,78.5315 -135.726,140.954 -32.0086,62.4158 -48.0782,133.998 -48.0217,214.915 -0.0848377,85.1099 17.4306,159.113 52.5499,222.013 35.1228,62.8966 86.5486,110.756 154.267,143.393 52.9706,25.2286 123.997,37.6927 213.289,37.7387 86.1951,0.0282792 150.711,-7.7167 193.349,-23.4081 42.8324,-15.5182 78.2946,-39.7429 106.401,-72.4938 28.2792,-32.9418 49.3826,-74.4204 63.653,-124.81l-232.392 -41.468c-9.73513,29.4246 -25.8296,51.9066 -48.8383,67.4813 -22.8249,15.5607 -52.0515,23.4576 -87.5101,23.4965 -52.7443,-0.144931 -94.8026,-18.4911 -126.186,-55.2152 -31.3758,-36.5439 -47.1486,-94.6365 -47.1309,-174.105 -0.0565585,-84.3747 15.8753,-144.673 47.6187,-180.888 31.7435,-36.2151 75.9015,-54.1689 132.637,-54.2325 27.0951,0.0353491 52.762,3.96263 77.1635,11.5945 24.4156,7.81214 52.5782,21.2483 84.1095,39.9621l0.0318141 73.4659 -161.305 -0.0919075z" />
      </glyph>
      <glyph
         id="glyph6152"
         horiz-adv-x="907"
         unicode="O">
        <path
           id="path6154"
           d="M49.5735 389.331c-0.0989774,127.426 35.3278,226.344 106.259,297.406 70.889,70.8112 169.721,106.252 296.239,106.365 129.749,-0.0106047 229.801,-34.84 300.011,-104.594 70.3552,-69.6482 105.344,-167.236 105.361,-292.701 -0.00353491,-91.1369 -15.2319,-165.95 -46.0492,-224.254 -30.5628,-58.3436 -75.0566,-103.693 -132.98,-136.122 -57.9194,-32.4292 -130.198,-48.8029 -216.647,-48.7605 -88.0156,0.0282792 -160.813,14.0265 -218.397,41.9982 -57.6932,28.1202 -104.389,72.31 -140.155,132.969 -35.7662,60.659 -53.6457,136.557 -53.6422,227.694zm240.886 -0.968564c0.00353491,-78.786 14.5815,-135.313 43.8434,-169.718 29.2655,-34.4088 69.1781,-51.652 119.377,-51.5425 51.8712,-0.0247443 91.9747,16.7661 120.201,50.5209 28.3358,33.6028 42.585,94.0108 42.638,181.372 -0.0848377,73.3387 -14.8537,127.03 -44.3419,160.824 -29.7462,33.8326 -69.9522,50.8638 -120.66,50.8319 -48.4918,0.0106047 -87.6197,-17.1938 -116.984,-51.546 -29.5094,-34.4583 -44.1015,-91.3031 -44.0732,-170.743z" />
      </glyph>
      <glyph
         id="glyph6156"
         horiz-adv-x="847"
         unicode="R">
        <path
           id="path6158"
           d="M82.9395 0.0212094l0.0706981 779.641 401.484 0.116652c74.6077,-0.0459538 131.325,-6.48655 170.778,-19.1203 39.4001,-12.807 71.1541,-36.4625 95.2197,-71.1329 24.1116,-34.4971 36.1974,-76.6898 36.1727,-126.178 0.0600934,-43.2778 -9.15541,-80.6878 -27.5935,-112.049 -18.4416,-31.3617 -43.8576,-56.7564 -76.1313,-76.407 -20.5166,-12.2555 -48.8135,-22.6552 -84.5655,-30.7254 28.8024,-9.58313 49.6725,-19.1557 62.7835,-28.7741 8.77364,-6.29213 21.6584,-20.0005 38.5234,-40.8953 16.8686,-20.8948 28.0778,-37.1448 33.7301,-48.3999l116.525 -226.107 -272.22 0.0353491 -128.713 238.292c-16.4833,30.7961 -30.9552,50.8178 -43.7692,60.157 -17.3493,11.9657 -36.9751,17.9715 -58.8774,18.0174l-21.3756 -0.102512 -0.0530236 -316.424 -241.989 0.0565585zm241.982 463.737l101.674 0.127257c10.9264,-0.109582 32.157,3.43946 63.8687,10.5906 15.8434,3.20262 28.9473,11.347 39.1349,24.4863 9.9649,13.0085 15.0693,28.1697 15.034,45.1832 0.0247443,25.119 -8.03837,44.4338 -24.0161,57.8947 -15.7515,13.5846 -45.7523,20.2974 -89.7795,20.2656l-105.814 -0.074233 -0.102512 -158.473z" />
      </glyph>
      <glyph
         id="glyph6160"
         horiz-adv-x="786"
         unicode="S">
        <path
           id="path6162"
           d="M37.7599 258.055l229.338 14.3694c4.99482,-37.3463 15.0233,-65.7316 30.333,-85.2407 24.7302,-31.549 60.1287,-47.3006 106.358,-47.1839 34.285,-0.0424189 60.8251,7.92526 79.546,24.0692 18.4805,16.2323 27.8445,34.8224 27.9364,56.106 -0.0141396,20.2303 -8.86201,38.3467 -26.7097,54.2714 -17.6781,15.999 -58.7819,31.0966 -123.308,45.2892 -105.786,23.6096 -181.047,55.2364 -226.114,94.7355 -45.3953,39.3435 -68.1565,89.4437 -68.1176,150.375 -0.0424189,40.054 11.7182,77.9977 34.7905,113.601 23.2349,35.6813 58.2835,63.6495 104.828,84.1484 46.6219,20.3398 110.597,30.5345 191.758,30.5098 99.7692,0.0353491 175.713,-18.4487 227.913,-55.6253 52.3626,-37.0953 83.4167,-95.9515 93.4735,-176.82l-227.199 -13.3725c-6.02348,35.2607 -18.7315,60.7933 -37.9578,76.6756 -19.4667,15.9672 -46.0598,24.0055 -80.101,23.9596 -28.0318,-0.0459538 -49.1529,-5.88562 -63.3738,-17.929 -14.1326,-11.7995 -21.1918,-26.3103 -21.3296,-43.2071 -0.0141396,-12.4287 6.01641,-23.645 17.6887,-33.6311 11.34,-10.1416 38.2901,-19.8131 80.868,-28.6151 105.16,-22.6941 180.817,-45.724 226.329,-68.9837 45.5084,-23.2597 78.7648,-52.0373 99.4334,-86.4779 20.7605,-34.2037 31.1602,-72.8332 31.1354,-115.326 -0.0706981,-50.125 -13.9169,-96.054 -41.4786,-138.36 -27.6359,-42.1431 -66.3714,-74.233 -115.956,-95.9515 -49.7467,-21.7962 -112.361,-32.758 -187.919,-32.7262 -132.428,-0.0353491 -224.343,25.6281 -275.355,76.5802 -51.0865,51.1183 -80.108,115.931 -86.8102,194.759z" />
      </glyph>
    </font>
    <style
       id="style6280"
       type="text/css">
   
    .fil1 {fill:#1F1A17}
    .fil0 {fill:#131516}
    .fil2 {fill:#1F1A17;fill-rule:nonzero}
   
  </style>
    <style
       id="style6387"
       type="text/css">
   
    @font-face { font-family:&quot;Arial&quot;;src:url(&quot;#FontID0&quot;) format(svg)}
    .str5 {stroke:#1F1A17;stroke-width:0.0762}
    .str1 {stroke:#1F1A17;stroke-width:0.0762;stroke-linecap:round;stroke-linejoin:round}
    .str0 {stroke-width:0.6672;stroke-linecap:round;stroke-linejoin:round}
    .str2 {stroke-width:0.7411;stroke-linecap:round;stroke-linejoin:round}
    .str3 {stroke-width:0.7414;stroke-linecap:round;stroke-linejoin:round}
    .str4 {stroke-width:13.5001}
    .str6 {stroke:#1F1A17;stroke-width:0.0762}
    .fil0 {fill:#1F1A17}
    .fil2 {fill:white}
    .fil1 {fill:#1F1A17;fill-rule:nonzero}
    .fnt3 {font-weight:bold;font-size:5.6444;font-family:'Arial'}
    .fnt2 {font-weight:bold;font-size:102.784;font-family:'Arial'}
    .fnt1 {font-weight:bold;font-size:102.817;font-family:'Arial'}
    .fnt0 {font-weight:bold;font-size:114.204;font-family:'Arial'}
   
  </style>
    <font
       font-weight="700"
       font-style="normal"
       class="str0"
       font-variant="normal"
       id="font6637"
       horiz-origin-x="0"
       horiz-origin-y="0"
       horiz-adv-x="90"
       vert-origin-x="45"
       vert-origin-y="90"
       vert-adv-y="90"
       style="font-style:normal;font-variant:normal;font-weight:700;stroke-width:0.66720003;stroke-linecap:round;stroke-linejoin:round">
      <font-face
         id="font-face6311"
         font-family="Arial" />
      <missing-glyph
         id="missing-glyph6313">
        <path
           id="path6315"
           d="M0 0z" />
      </missing-glyph>
      <glyph
         id="glyph6317"
         horiz-adv-x="277"
         unicode=" " />
      <glyph
         id="glyph6319"
         horiz-adv-x="277"
         unicode=",">
        <path
           id="path6321"
           d="M68.3336 137.166l137.166 0 0 -98.1661c0,-39.6666 -3.3335,-70.9999 -10.1669,-93.9999 -6.83336,-22.8336 -19.8329,-43.5001 -38.833,-61.6666 -19.0001,-18.3338 -43.1665,-32.6669 -72.4998,-43.0001l-26.8335 56.6659c27.6662,9.1669 47.3336,21.6673 58.9995,37.5003 11.834,16.0003 18.0002,37.833 18.6674,65.5001l-66.5001 0 0 137.166z" />
      </glyph>
      <glyph
         id="glyph6323"
         horiz-adv-x="500"
         unicode="”">
        <path
           id="path6325"
           d="M293 715.833l137.166 0 0 -98.667c0,-39.6666 -3.49987,-70.9999 -10.4996,-93.6663 -7.00061,-22.8336 -20.0001,-43.5001 -39.0002,-61.833 -19.1665,-18.3338 -43.1665,-32.8332 -71.9999,-43.1673l-26.9998 57.1668c27.4998,9.00053 46.9999,21.6673 58.8331,38.0003 11.9995,16.333 18.0002,38.0003 18.3329,65.0001l-65.8328 0 0 137.166zm-230.5 0l137.166 0 0 -98.667c0,-39.6666 -3.3335,-70.9999 -10.1669,-93.6663 -6.83336,-22.8336 -19.8329,-43.5001 -38.833,-61.833 -19.0001,-18.3338 -43.1665,-32.8332 -72.4998,-43.1673l-26.8335 57.1668c27.6662,9.00053 47.3336,21.6673 59.0004,38.0003 11.6659,16.333 17.9993,38.0003 18.4993,65.0001l-66.3328 0 0 137.166z" />
      </glyph>
      <glyph
         id="glyph6327"
         horiz-adv-x="500"
         unicode="“">
        <path
           id="path6329"
           d="M201.666 425.833l-137.166 0 0 98.167c0,39.6666 3.49987,70.9999 10.4996,93.9999 7.00061,22.8336 19.8337,43.5001 38.8339,61.6666 18.8329,18.3338 42.8329,32.5005 72.1662,43.0001l26.8335 -56.6668c-27.3334,-9.16602 -46.8336,-21.8328 -58.8331,-37.9994 -11.8332,-16.3339 -18.1666,-38.0003 -18.6665,-65.0001l66.3328 0 0 -137.167zm229 0l-137.166 0 0 98.167c0,40.0002 3.49987,71.3335 10.4996,94.1671 7.00061,22.8327 20.0001,43.3328 39.0002,61.4994 19.0001,18.3338 43.0001,32.5005 71.9999,43.0001l26.8335 -56.6668c-27.3334,-9.16602 -46.8336,-21.8328 -58.8331,-37.9994 -11.8332,-16.3339 -18.1666,-38.0003 -18.6665,-65.0001l66.3328 0 0 -137.167z" />
      </glyph>
      <glyph
         id="glyph6331"
         horiz-adv-x="610"
         unicode="L">
        <path
           id="path6333"
           d="M76.6069 0.0354333l0.0177167 709.712 144.515 0.141733 0.0885834 -589.327 359.276 0 -0.141733 -120.615 -503.756 0.0885834z" />
      </glyph>
      <glyph
         id="glyph6335"
         horiz-adv-x="666"
         unicode="E">
        <path
           id="path6337"
           d="M72.6915 -0.0354333l-0.0354333 715.754 530.792 0.0354333 0.05315 -121.164 -386.224 0.0177167 -0.05315 -158.582 359.383 0.05315 -0.0354333 -120.633 -359.383 -0.0708667 0.1063 -194.742 399.794 0.0354333 -0.0354333 -120.651 -544.363 -0.05315z" />
      </glyph>
      <glyph
         id="glyph6339"
         horiz-adv-x="610"
         unicode="F">
        <path
           id="path6341"
           d="M73.6665 0l0 715.833 490.833 0 0 -121.166 -346.166 0 0 -169.333 298.833 0 0 -121.167 -298.833 0 0 -304.166 -144.667 0z" />
      </glyph>
      <glyph
         id="glyph6343"
         horiz-adv-x="722"
         unicode="N">
        <path
           id="path6345"
           d="M74.2506 0.0708667l-0.0177167 715.754 140.6 -0.0177167 292.963 -478.084 -0.0177167 478.12 134.222 -0.0354333 0.0177167 -715.754 -144.958 -0.0177167 -288.622 466.728 0.0354333 -466.728 -134.222 0.0354333z" />
      </glyph>
      <glyph
         id="glyph6347"
         horiz-adv-x="777"
         unicode="O">
        <path
           id="path6349"
           d="M43.4059 353.465c0.05315,72.8864 11.0021,134.151 32.7936,183.669 16.2816,36.4964 38.4098,69.095 66.5261,98.0972 28.2581,28.8959 59.0674,50.4394 92.6051,64.5064 44.6106,18.886 96.0952,28.2049 154.259,28.2581 105.556,-0.0354333 189.976,-32.6695 253.295,-98.1504 63.1954,-65.3745 94.8551,-156.35 94.8728,-272.819 0.0708667,-115.743 -31.4648,-206.063 -94.235,-271.402 -62.6993,-65.1796 -146.871,-97.8315 -251.913,-97.9023 -106.53,0.0354333 -191.021,32.5278 -253.862,97.5126 -62.8588,64.9848 -94.3413,154.295 -94.3413,268.23zm149.015 4.96067c-0.0885834,-81.0361 18.7797,-142.531 56.0556,-184.377 37.4885,-41.7759 84.9869,-62.7347 142.548,-62.6993 57.7209,-0.0708667 105.007,20.7108 142.017,62.2387 36.7798,41.4747 55.3823,103.802 55.3115,186.875 0,81.851 -17.9647,143.204 -53.8764,183.456 -36.0534,40.3232 -83.7467,60.6087 -143.399,60.6796 -59.5812,-0.15945 -107.593,-20.5159 -144.037,-61.4237 -36.4432,-40.9078 -54.7445,-102.438 -54.6205,-184.749z" />
      </glyph>
      <glyph
         id="glyph6351"
         horiz-adv-x="722"
         unicode="H">
        <path
           id="path6353"
           d="M73.1699 0.05315l0.141733 715.399 144.391 0.0885834 -0.05315 -281.731 283.095 0.124017 -0.05315 281.518 144.55 0.141733 -0.0708667 -715.559 -144.391 -0.0708667 0.0177167 312.947 -283.095 -0.124017 -0.0708667 -312.806 -144.462 0.0708667z" />
      </glyph>
      <glyph
         id="glyph6355"
         horiz-adv-x="277"
         unicode="I">
        <path
           id="path6357"
           d="M68.3336 0l0 715.833 144.5 0 0 -715.833 -144.5 0z" />
      </glyph>
      <glyph
         id="glyph6359"
         horiz-adv-x="722"
         unicode="A">
        <path
           id="path6361"
           d="M718.163 0.05315l-157.218 -0.124017 -62.469 162.604 -286.124 0 -59.032 -162.533 -153.32 0 278.843 715.825 152.806 -0.1063 286.514 -715.665zm-266.016 283.112l-98.6642 265.644 -96.733 -265.626 195.397 -0.0177167z" />
      </glyph>
      <glyph
         id="glyph6363"
         horiz-adv-x="610"
         unicode="Z">
        <path
           id="path6365"
           d="M10.667 0l0 130.334 376 464.333 -333.5 0 0 121.166 523.999 0 0 -112.333 -392.166 -482.833 407.333 0 0 -120.667 -581.666 0z" />
      </glyph>
      <glyph
         id="glyph6367"
         horiz-adv-x="722"
         unicode="U">
        <path
           id="path6369"
           d="M71.8332 715.833l144.5 0 0 -387.667c0,-61.4993 1.83335,-101.499 5.33373,-119.667 6.16627,-29.3326 21.0003,-52.8335 44.1666,-70.4997 23.3336,-17.8336 55.1667,-26.6667 95.5004,-26.6667 40.9999,0 71.9995,8.33322 92.8325,25.1669 20.834,16.6664 33.3339,37.3332 37.5005,61.6666 4.33292,24.4997 6.33356,64.9997 6.33356,121.666l0 396 144.5 0 0 -376c0,-86 -3.83398,-146.667 -11.6673,-182.167 -7.8333,-35.4998 -22.1665,-65.3333 -43.1658,-89.834 -21.0003,-24.3325 -49.1668,-43.833 -84.1667,-58.3325 -35.1672,-14.5005 -81.1672,-21.6666 -137.834,-21.6666 -68.3338,0 -120.166,7.8333 -155.5,23.6662 -35.3335,15.8329 -63.1664,36.3333 -83.6668,61.5003 -20.5004,25.166 -34.0001,51.6664 -40.5,79.3329 -9.50034,40.9999 -14.1669,101.5 -14.1669,181.667l0 381.833z" />
      </glyph>
      <glyph
         id="glyph6371"
         horiz-adv-x="666"
         unicode="Y">
        <path
           id="path6373"
           d="M260.667 0l0 301.333 -262.167 414.5 169.5 0 168.501 -283.167 165 283.167 166.5 0 -263.167 -415.5 0 -300.333 -144.166 0z" />
      </glyph>
      <glyph
         id="glyph6375"
         horiz-adv-x="722"
         unicode="R">
        <path
           id="path6377"
           d="M73.1666 0l0 715.833 304.334 0c76.4997,0 132,-6.49987 166.666,-19.3333 34.6663,-12.8334 62.5001,-35.6661 83.3332,-68.5001 20.833,-32.9993 31.1669,-70.4997 31.1669,-112.833 0,-53.667 -15.8329,-98.1663 -47.3334,-133.167 -31.4995,-34.8326 -78.833,-56.9991 -141.667,-65.9995 31.3332,-18.3335 57.1664,-38.333 77.5005,-60.1669 20.3331,-21.8329 47.6661,-60.4995 82.1661,-116.166l87.4998 -139.667 -172.833 0 -104.501 155.834c-37.1659,55.6666 -62.4991,90.6666 -76.1661,105.166 -13.6669,14.5005 -28.1664,24.3334 -43.5004,29.8335 -15.333,5.33373 -39.5001,8.00059 -72.833,8.00059l-29.1663 0 0 -298.834 -144.667 0zm144.667 413.166l106.833 0c69.3336,0 112.667,2.83318 129.999,8.66682 17.1673,5.83364 30.667,16.0002 40.5,30.3334 9.66762,14.3332 14.6668,32.1667 14.6668,53.667 0,24.1661 -6.49987,43.4994 -19.3333,58.3335 -12.8334,14.8331 -30.9996,24.1661 -54.4995,28.1664 -11.6663,1.49975 -46.8335,2.33326 -105.5,2.33326l-112.667 0 0 -181.5z" />
      </glyph>
      <glyph
         id="glyph6379"
         horiz-adv-x="610"
         unicode="T">
        <path
           id="path6381"
           d="M233.825 0.0708667l0.0354333 594.642 -212.458 -0.1063 0.15945 121.164 568.617 -0.0708667 0 -121.005 -211.785 -0.0708667 -0.0354333 -594.66 -144.533 0.1063z" />
      </glyph>
      <glyph
         id="glyph6383"
         horiz-adv-x="666"
         unicode="P">
        <path
           id="path6385"
           d="M72.7447 -0.0708667l0 715.931 231.947 -0.0885834c87.8038,0.0177167 145.153,-3.5079 171.887,-10.754 40.9964,-10.6123 75.2959,-33.9806 103.04,-69.9454 27.5849,-35.9826 41.5279,-82.4534 41.4747,-139.43 -0.0708667,-43.9196 -7.91935,-80.9475 -23.8644,-110.942 -15.9804,-29.8349 -36.2838,-53.4158 -60.7859,-70.5655 -24.697,-17.008 -49.6421,-28.3467 -75.0478,-33.8743 -34.4766,-6.8032 -84.3845,-10.2048 -149.919,-10.2225l-94.1818 -0.0177167 0.05315 -269.967 -144.604 -0.124017zm144.621 594.713l-0.1063 -203.122 79.0872 0.1063c56.9945,-0.05315 95.1385,3.79137 114.29,11.1615 19.1517,7.5473 34.1932,19.1872 45.2307,35.2562 10.9135,15.8919 16.3348,34.4058 16.2993,55.5063 -0.0708667,26.1498 -7.68904,47.6224 -22.8722,64.471 -15.3604,16.9903 -34.7247,27.514 -58.1284,31.766 -17.2915,3.38388 -51.9807,4.92524 -104.103,4.97839l-69.6974 -0.124017z" />
      </glyph>
    </font>
    <metadata
       id="metadata8297" />
    <clipPath
       id="id0">
      <path
         id="path9"
         d="m 98.3993,109.313 c 3.0117,7.0923 28.1165,6.06 38.8462,28.2761 l -5.4646,4.0362 c -0.4561,6.2613 11.8469,1.6057 10.6912,18.4933 -0.2505,0.8016 -0.9446,1.8249 -1.1951,2.6265 -1.7263,-3.1797 -5.3913,-7.7353 -8.337,-9.5782 -0.9962,-0.6232 -2.0578,-0.7742 -3.1736,-0.8289 -9.6191,-0.4718 -11.5593,-2.4284 -12.8835,-3.5088 -15.3224,-12.501 -35.0049,-2.3707 -42.8344,-17.8164 0.5207,-4.9948 5.7494,-11.6586 12.0039,-16.3022 3.9847,-2.9585 8.3085,-5.1486 12.3469,-5.3976 l 0,0 z"
         inkscape:connector-curvature="0" />
    </clipPath>
    <style
       id="style6"
       type="text/css">
   
    .str0 {stroke:#00923F;stroke-width:0.0762}
    .str3 {stroke:#1F1A17;stroke-width:0.0762}
    .str4 {stroke:#71625B;stroke-width:0.0762}
    .str1 {stroke:#DA251D;stroke-width:0.0762}
    .str5 {stroke:#DEDEDD;stroke-width:0.0762}
    .str2 {stroke:white;stroke-width:0.7056;stroke-linecap:round;stroke-linejoin:round}
    .fil3 {fill:none}
    .fil1 {fill:#00923F}
    .fil6 {fill:#1F1A17}
    .fil4 {fill:#28166F}
    .fil8 {fill:#71625B}
    .fil7 {fill:#AAA9A9}
    .fil2 {fill:#DA251D}
    .fil0 {fill:white}
    .fil5 {fill:white}
   
  </style>
    <metadata
       id="metadata6680" />
    <metadata
       id="metadata3407" />
    <style
       id="style11661"
       type="text/css">
   
    @font-face { font-family:&quot;Arial&quot;;src:url(&quot;#FontID0&quot;) format(svg)}
    .str5 {stroke:#1F1A17;stroke-width:0.0762}
    .str1 {stroke:#1F1A17;stroke-width:0.0762;stroke-linecap:round;stroke-linejoin:round}
    .str0 {stroke-width:0.6672;stroke-linecap:round;stroke-linejoin:round}
    .str2 {stroke-width:0.7411;stroke-linecap:round;stroke-linejoin:round}
    .str3 {stroke-width:0.7414;stroke-linecap:round;stroke-linejoin:round}
    .str4 {stroke-width:13.5001}
    .str6 {stroke:#1F1A17;stroke-width:0.0762}
    .fil0 {fill:#1F1A17}
    .fil3 {fill:#72706F}
    .fil4 {fill:#AAA9A9}
    .fil2 {fill:white}
    .fil1 {fill:#1F1A17;fill-rule:nonzero}
    .fnt3 {font-weight:bold;font-size:5.6444;font-family:'Arial'}
    .fnt2 {font-weight:bold;font-size:102.784;font-family:'Arial'}
    .fnt1 {font-weight:bold;font-size:102.817;font-family:'Arial'}
    .fnt0 {font-weight:bold;font-size:114.204;font-family:'Arial'}
   
  </style>
    <font
       font-weight="700"
       font-style="normal"
       class="str0"
       font-variant="normal"
       id="font11923"
       horiz-origin-x="0"
       horiz-origin-y="0"
       horiz-adv-x="90"
       vert-origin-x="45"
       vert-origin-y="90"
       vert-adv-y="90"
       style="font-style:normal;font-variant:normal;font-weight:700;stroke-width:0.66720003;stroke-linecap:round;stroke-linejoin:round">
      <font-face
         id="font-face11585"
         font-family="Arial" />
      <missing-glyph
         id="missing-glyph11587">
        <path
           id="path11589"
           d="M0 0z" />
      </missing-glyph>
      <glyph
         id="glyph11591"
         horiz-adv-x="277"
         unicode=" " />
      <glyph
         id="glyph11593"
         horiz-adv-x="277"
         unicode=",">
        <path
           id="path11595"
           d="M68.3336 137.166l137.166 0 0 -98.1661c0,-39.6666 -3.3335,-70.9999 -10.1669,-93.9999 -6.83336,-22.8336 -19.8329,-43.5001 -38.833,-61.6666 -19.0001,-18.3338 -43.1665,-32.6669 -72.4998,-43.0001l-26.8335 56.6659c27.6662,9.1669 47.3336,21.6673 58.9995,37.5003 11.834,16.0003 18.0002,37.833 18.6674,65.5001l-66.5001 0 0 137.166z" />
      </glyph>
      <glyph
         id="glyph11597"
         horiz-adv-x="500"
         unicode="”">
        <path
           id="path11599"
           d="M293 715.833l137.166 0 0 -98.667c0,-39.6666 -3.49987,-70.9999 -10.4996,-93.6663 -7.00061,-22.8336 -20.0001,-43.5001 -39.0002,-61.833 -19.1665,-18.3338 -43.1665,-32.8332 -71.9999,-43.1673l-26.9998 57.1668c27.4998,9.00053 46.9999,21.6673 58.8331,38.0003 11.9995,16.333 18.0002,38.0003 18.3329,65.0001l-65.8328 0 0 137.166zm-230.5 0l137.166 0 0 -98.667c0,-39.6666 -3.3335,-70.9999 -10.1669,-93.6663 -6.83336,-22.8336 -19.8329,-43.5001 -38.833,-61.833 -19.0001,-18.3338 -43.1665,-32.8332 -72.4998,-43.1673l-26.8335 57.1668c27.6662,9.00053 47.3336,21.6673 59.0004,38.0003 11.6659,16.333 17.9993,38.0003 18.4993,65.0001l-66.3328 0 0 137.166z" />
      </glyph>
      <glyph
         id="glyph11601"
         horiz-adv-x="500"
         unicode="“">
        <path
           id="path11603"
           d="M201.666 425.833l-137.166 0 0 98.167c0,39.6666 3.49987,70.9999 10.4996,93.9999 7.00061,22.8336 19.8337,43.5001 38.8339,61.6666 18.8329,18.3338 42.8329,32.5005 72.1662,43.0001l26.8335 -56.6668c-27.3334,-9.16602 -46.8336,-21.8328 -58.8331,-37.9994 -11.8332,-16.3339 -18.1666,-38.0003 -18.6665,-65.0001l66.3328 0 0 -137.167zm229 0l-137.166 0 0 98.167c0,40.0002 3.49987,71.3335 10.4996,94.1671 7.00061,22.8327 20.0001,43.3328 39.0002,61.4994 19.0001,18.3338 43.0001,32.5005 71.9999,43.0001l26.8335 -56.6668c-27.3334,-9.16602 -46.8336,-21.8328 -58.8331,-37.9994 -11.8332,-16.3339 -18.1666,-38.0003 -18.6665,-65.0001l66.3328 0 0 -137.167z" />
      </glyph>
      <glyph
         id="glyph11605"
         horiz-adv-x="610"
         unicode="L">
        <path
           id="path11607"
           d="M76.6069 0.0354333l0.0177167 709.712 144.515 0.141733 0.0885834 -589.327 359.276 0 -0.141733 -120.615 -503.756 0.0885834z" />
      </glyph>
      <glyph
         id="glyph11609"
         horiz-adv-x="666"
         unicode="E">
        <path
           id="path11611"
           d="M72.6915 -0.0354333l-0.0354333 715.754 530.792 0.0354333 0.05315 -121.164 -386.224 0.0177167 -0.05315 -158.582 359.383 0.05315 -0.0354333 -120.633 -359.383 -0.0708667 0.1063 -194.742 399.794 0.0354333 -0.0354333 -120.651 -544.363 -0.05315z" />
      </glyph>
      <glyph
         id="glyph11613"
         horiz-adv-x="610"
         unicode="F">
        <path
           id="path11615"
           d="M73.6665 0l0 715.833 490.833 0 0 -121.166 -346.166 0 0 -169.333 298.833 0 0 -121.167 -298.833 0 0 -304.166 -144.667 0z" />
      </glyph>
      <glyph
         id="glyph11617"
         horiz-adv-x="722"
         unicode="N">
        <path
           id="path11619"
           d="M74.2506 0.0708667l-0.0177167 715.754 140.6 -0.0177167 292.963 -478.084 -0.0177167 478.12 134.222 -0.0354333 0.0177167 -715.754 -144.958 -0.0177167 -288.622 466.728 0.0354333 -466.728 -134.222 0.0354333z" />
      </glyph>
      <glyph
         id="glyph11621"
         horiz-adv-x="777"
         unicode="O">
        <path
           id="path11623"
           d="M43.4059 353.465c0.05315,72.8864 11.0021,134.151 32.7936,183.669 16.2816,36.4964 38.4098,69.095 66.5261,98.0972 28.2581,28.8959 59.0674,50.4394 92.6051,64.5064 44.6106,18.886 96.0952,28.2049 154.259,28.2581 105.556,-0.0354333 189.976,-32.6695 253.295,-98.1504 63.1954,-65.3745 94.8551,-156.35 94.8728,-272.819 0.0708667,-115.743 -31.4648,-206.063 -94.235,-271.402 -62.6993,-65.1796 -146.871,-97.8315 -251.913,-97.9023 -106.53,0.0354333 -191.021,32.5278 -253.862,97.5126 -62.8588,64.9848 -94.3413,154.295 -94.3413,268.23zm149.015 4.96067c-0.0885834,-81.0361 18.7797,-142.531 56.0556,-184.377 37.4885,-41.7759 84.9869,-62.7347 142.548,-62.6993 57.7209,-0.0708667 105.007,20.7108 142.017,62.2387 36.7798,41.4747 55.3823,103.802 55.3115,186.875 0,81.851 -17.9647,143.204 -53.8764,183.456 -36.0534,40.3232 -83.7467,60.6087 -143.399,60.6796 -59.5812,-0.15945 -107.593,-20.5159 -144.037,-61.4237 -36.4432,-40.9078 -54.7445,-102.438 -54.6205,-184.749z" />
      </glyph>
      <glyph
         id="glyph11625"
         horiz-adv-x="722"
         unicode="H">
        <path
           id="path11627"
           d="M73.1699 0.05315l0.141733 715.399 144.391 0.0885834 -0.05315 -281.731 283.095 0.124017 -0.05315 281.518 144.55 0.141733 -0.0708667 -715.559 -144.391 -0.0708667 0.0177167 312.947 -283.095 -0.124017 -0.0708667 -312.806 -144.462 0.0708667z" />
      </glyph>
      <glyph
         id="glyph11629"
         horiz-adv-x="277"
         unicode="I">
        <path
           id="path11631"
           d="M68.3336 0l0 715.833 144.5 0 0 -715.833 -144.5 0z" />
      </glyph>
      <glyph
         id="glyph11633"
         horiz-adv-x="722"
         unicode="A">
        <path
           id="path11635"
           d="M718.163 0.05315l-157.218 -0.124017 -62.469 162.604 -286.124 0 -59.032 -162.533 -153.32 0 278.843 715.825 152.806 -0.1063 286.514 -715.665zm-266.016 283.112l-98.6642 265.644 -96.733 -265.626 195.397 -0.0177167z" />
      </glyph>
      <glyph
         id="glyph11637"
         horiz-adv-x="610"
         unicode="Z">
        <path
           id="path11639"
           d="M10.667 0l0 130.334 376 464.333 -333.5 0 0 121.166 523.999 0 0 -112.333 -392.166 -482.833 407.333 0 0 -120.667 -581.666 0z" />
      </glyph>
      <glyph
         id="glyph11641"
         horiz-adv-x="722"
         unicode="U">
        <path
           id="path11643"
           d="M71.8332 715.833l144.5 0 0 -387.667c0,-61.4993 1.83335,-101.499 5.33373,-119.667 6.16627,-29.3326 21.0003,-52.8335 44.1666,-70.4997 23.3336,-17.8336 55.1667,-26.6667 95.5004,-26.6667 40.9999,0 71.9995,8.33322 92.8325,25.1669 20.834,16.6664 33.3339,37.3332 37.5005,61.6666 4.33292,24.4997 6.33356,64.9997 6.33356,121.666l0 396 144.5 0 0 -376c0,-86 -3.83398,-146.667 -11.6673,-182.167 -7.8333,-35.4998 -22.1665,-65.3333 -43.1658,-89.834 -21.0003,-24.3325 -49.1668,-43.833 -84.1667,-58.3325 -35.1672,-14.5005 -81.1672,-21.6666 -137.834,-21.6666 -68.3338,0 -120.166,7.8333 -155.5,23.6662 -35.3335,15.8329 -63.1664,36.3333 -83.6668,61.5003 -20.5004,25.166 -34.0001,51.6664 -40.5,79.3329 -9.50034,40.9999 -14.1669,101.5 -14.1669,181.667l0 381.833z" />
      </glyph>
      <glyph
         id="glyph11645"
         horiz-adv-x="666"
         unicode="Y">
        <path
           id="path11647"
           d="M260.667 0l0 301.333 -262.167 414.5 169.5 0 168.501 -283.167 165 283.167 166.5 0 -263.167 -415.5 0 -300.333 -144.166 0z" />
      </glyph>
      <glyph
         id="glyph11649"
         horiz-adv-x="722"
         unicode="R">
        <path
           id="path11651"
           d="M73.1666 0l0 715.833 304.334 0c76.4997,0 132,-6.49987 166.666,-19.3333 34.6663,-12.8334 62.5001,-35.6661 83.3332,-68.5001 20.833,-32.9993 31.1669,-70.4997 31.1669,-112.833 0,-53.667 -15.8329,-98.1663 -47.3334,-133.167 -31.4995,-34.8326 -78.833,-56.9991 -141.667,-65.9995 31.3332,-18.3335 57.1664,-38.333 77.5005,-60.1669 20.3331,-21.8329 47.6661,-60.4995 82.1661,-116.166l87.4998 -139.667 -172.833 0 -104.501 155.834c-37.1659,55.6666 -62.4991,90.6666 -76.1661,105.166 -13.6669,14.5005 -28.1664,24.3334 -43.5004,29.8335 -15.333,5.33373 -39.5001,8.00059 -72.833,8.00059l-29.1663 0 0 -298.834 -144.667 0zm144.667 413.166l106.833 0c69.3336,0 112.667,2.83318 129.999,8.66682 17.1673,5.83364 30.667,16.0002 40.5,30.3334 9.66762,14.3332 14.6668,32.1667 14.6668,53.667 0,24.1661 -6.49987,43.4994 -19.3333,58.3335 -12.8334,14.8331 -30.9996,24.1661 -54.4995,28.1664 -11.6663,1.49975 -46.8335,2.33326 -105.5,2.33326l-112.667 0 0 -181.5z" />
      </glyph>
      <glyph
         id="glyph11653"
         horiz-adv-x="610"
         unicode="T">
        <path
           id="path11655"
           d="M233.825 0.0708667l0.0354333 594.642 -212.458 -0.1063 0.15945 121.164 568.617 -0.0708667 0 -121.005 -211.785 -0.0708667 -0.0354333 -594.66 -144.533 0.1063z" />
      </glyph>
      <glyph
         id="glyph11657"
         horiz-adv-x="666"
         unicode="P">
        <path
           id="path11659"
           d="M72.7447 -0.0708667l0 715.931 231.947 -0.0885834c87.8038,0.0177167 145.153,-3.5079 171.887,-10.754 40.9964,-10.6123 75.2959,-33.9806 103.04,-69.9454 27.5849,-35.9826 41.5279,-82.4534 41.4747,-139.43 -0.0708667,-43.9196 -7.91935,-80.9475 -23.8644,-110.942 -15.9804,-29.8349 -36.2838,-53.4158 -60.7859,-70.5655 -24.697,-17.008 -49.6421,-28.3467 -75.0478,-33.8743 -34.4766,-6.8032 -84.3845,-10.2048 -149.919,-10.2225l-94.1818 -0.0177167 0.05315 -269.967 -144.604 -0.124017zm144.621 594.713l-0.1063 -203.122 79.0872 0.1063c56.9945,-0.05315 95.1385,3.79137 114.29,11.1615 19.1517,7.5473 34.1932,19.1872 45.2307,35.2562 10.9135,15.8919 16.3348,34.4058 16.2993,55.5063 -0.0708667,26.1498 -7.68904,47.6224 -22.8722,64.471 -15.3604,16.9903 -34.7247,27.514 -58.1284,31.766 -17.2915,3.38388 -51.9807,4.92524 -104.103,4.97839l-69.6974 -0.124017z" />
      </glyph>
    </font>
    <metadata
       id="metadata11966" />
    <metadata
       id="metadata3689" />
    <metadata
       id="metadata5969" />
    <metadata
       id="metadata5588" />
    <metadata
       id="CorelCorpID_0Corel-Layer" />
    <inkscape:perspective
       id="perspective748"
       inkscape:persp3d-origin="640.00002 : 320.00003 : 1"
       inkscape:vp_z="1280.0001 : 480.00004 : 1"
       inkscape:vp_y="0 : 1000.0001 : 0"
       inkscape:vp_x="0 : 480.00004 : 1"
       sodipodi:type="inkscape:persp3d" />
    <marker
       id="Dot_l-8"
       inkscape:stockid="Dot_l"
       orient="auto"
       refX="0"
       refY="0"
       style="overflow:visible">
      <path
         d="m -2.5,-1 c 0,2.76 -2.24,5 -5,5 -2.76,0 -5,-2.24 -5,-5 0,-2.76 2.24,-5 5,-5 2.76,0 5,2.24 5,5 z"
         id="path41-9"
         style="fill-rule:evenodd;stroke:#000000;stroke-width:1pt;marker-start:none;marker-end:none"
         transform="matrix(0.8,0,0,0.8,5.700394,0.8)"
         inkscape:connector-curvature="0" />
    </marker>
    <inkscape:perspective
       id="perspective34-3"
       inkscape:persp3d-origin="37.500001 : 37.66667 : 1"
       inkscape:vp_z="75.000002 : 56.500005 : 1"
       inkscape:vp_y="0 : 1000.0001 : 0"
       inkscape:vp_x="0 : 56.500005 : 1"
       sodipodi:type="inkscape:persp3d" />
    <linearGradient
       inkscape:collect="always"
       xlink:href="#linearGradient3648"
       id="linearGradient3654-1"
       x1="-125.70774"
       y1="59.9706"
       x2="-138.39384"
       y2="85.342804"
       gradientUnits="userSpaceOnUse" />
    <marker
       id="Dot_l-0"
       inkscape:stockid="Dot_l"
       orient="auto"
       refX="0"
       refY="0"
       style="overflow:visible">
      <path
         d="m -2.5,-1 c 0,2.76 -2.24,5 -5,5 -2.76,0 -5,-2.24 -5,-5 0,-2.76 2.24,-5 5,-5 2.76,0 5,2.24 5,5 z"
         id="path41-94"
         style="fill-rule:evenodd;stroke:#000000;stroke-width:1pt;marker-start:none;marker-end:none"
         transform="matrix(0.8,0,0,0.8,5.700394,0.8)"
         inkscape:connector-curvature="0" />
    </marker>
    <inkscape:perspective
       id="perspective34-4"
       inkscape:persp3d-origin="37.500001 : 37.66667 : 1"
       inkscape:vp_z="75.000002 : 56.500005 : 1"
       inkscape:vp_y="0 : 1000.0001 : 0"
       inkscape:vp_x="0 : 56.500005 : 1"
       sodipodi:type="inkscape:persp3d" />
    <filter
       id="filter5592"
       style="color-interpolation-filters:sRGB"
       inkscape:label="Aluminium"
       inkscape:menu-tooltip="Aluminium effect with sharp brushed reflections"
       inkscape:menu="Non realistic 3D shaders"
       height="1.5"
       y="-0.25"
       width="1.5"
       x="-0.25">
      <feGaussianBlur
         id="feGaussianBlur5594"
         in="SourceGraphic"
         stdDeviation="5"
         result="result8" />
      <feComposite
         id="feComposite5596"
         result="result22"
         in2="SourceGraphic"
         operator="xor" />
      <feComposite
         id="feComposite5598"
         in="result22"
         in2="result22"
         result="result20"
         operator="arithmetic"
         k2="1"
         k1="0"
         k3="0"
         k4="0" />
      <feComposite
         id="feComposite5600"
         result="result6"
         operator="over"
         in="result20"
         in2="result22" />
      <feOffset
         id="feOffset5602"
         result="result21"
         in="result6" />
      <feDisplacementMap
         id="feDisplacementMap5604"
         in="result21"
         xChannelSelector="A"
         yChannelSelector="A"
         scale="100"
         result="result4"
         in2="result20" />
      <feComposite
         id="feComposite5606"
         in="result4"
         k3="0.5"
         result="fbSourceGraphic"
         operator="arithmetic"
         k1="1"
         in2="SourceGraphic"
         k2="0"
         k4="0" />
      <feComposite
         id="feComposite5608"
         in="fbSourceGraphic"
         operator="in"
         result="result12"
         in2="result4" />
      <feComposite
         id="feComposite5610"
         result="result18"
         operator="in"
         in2="SourceGraphic" />
      <feComposite
         id="feComposite5612"
         in="result18"
         operator="in"
         in2="SourceGraphic"
         result="result19" />
    </filter>
    <filter
       id="filter7118"
       style="color-interpolation-filters:sRGB"
       inkscape:menu-tooltip="Soft bevel, slightly depressed middle"
       inkscape:menu="Bevels"
       inkscape:label="Button">
      <feGaussianBlur
         id="feGaussianBlur7120"
         result="result0"
         in="SourceAlpha"
         stdDeviation="2.3" />
      <feMorphology
         id="feMorphology7122"
         result="result1"
         radius="6.6"
         in="SourceAlpha" />
      <feGaussianBlur
         id="feGaussianBlur7124"
         in="result1"
         stdDeviation="8.9" />
      <feColorMatrix
         id="feColorMatrix7126"
         result="result91"
         values="1 0 0 0 0 0 1 0 0 0 0 0 1 0 0 0 0 0 0.3 0" />
      <feComposite
         id="feComposite7128"
         in2="result91"
         result="result2"
         operator="out"
         in="result0" />
      <feGaussianBlur
         id="feGaussianBlur7130"
         result="result4"
         stdDeviation="1.7" />
      <feDiffuseLighting
         id="feDiffuseLighting7132"
         surfaceScale="10">
        <feDistantLight
           id="feDistantLight7134"
           elevation="45"
           azimuth="225" />
      </feDiffuseLighting>
      <feBlend
         id="feBlend7136"
         mode="multiply"
         in2="SourceGraphic" />
      <feComposite
         id="feComposite7138"
         result="result3"
         operator="in"
         in2="SourceAlpha" />
      <feSpecularLighting
         id="feSpecularLighting7140"
         specularExponent="17.89999962"
         surfaceScale="5"
         in="result4">
        <feDistantLight
           id="feDistantLight7142"
           elevation="45"
           azimuth="225" />
      </feSpecularLighting>
      <feComposite
         id="feComposite7144"
         operator="atop"
         in2="result3" />
    </filter>
    <filter
       id="filter7198"
       style="color-interpolation-filters:sRGB"
       inkscape:menu-tooltip="Soft bevel, slightly depressed middle"
       inkscape:menu="Bevels"
       inkscape:label="Button">
      <feGaussianBlur
         id="feGaussianBlur7200"
         result="result0"
         in="SourceAlpha"
         stdDeviation="2.3" />
      <feMorphology
         id="feMorphology7202"
         result="result1"
         radius="6.6"
         in="SourceAlpha" />
      <feGaussianBlur
         id="feGaussianBlur7204"
         in="result1"
         stdDeviation="8.9" />
      <feColorMatrix
         id="feColorMatrix7206"
         result="result91"
         values="1 0 0 0 0 0 1 0 0 0 0 0 1 0 0 0 0 0 0.3 0" />
      <feComposite
         id="feComposite7208"
         in2="result91"
         result="result2"
         operator="out"
         in="result0" />
      <feGaussianBlur
         id="feGaussianBlur7210"
         result="result4"
         stdDeviation="1.7" />
      <feDiffuseLighting
         id="feDiffuseLighting7212"
         surfaceScale="10">
        <feDistantLight
           id="feDistantLight7214"
           elevation="45"
           azimuth="225" />
      </feDiffuseLighting>
      <feBlend
         id="feBlend7216"
         mode="multiply"
         in2="SourceGraphic" />
      <feComposite
         id="feComposite7218"
         result="result3"
         operator="in"
         in2="SourceAlpha" />
      <feSpecularLighting
         id="feSpecularLighting7220"
         specularExponent="17.89999962"
         surfaceScale="5"
         in="result4">
        <feDistantLight
           id="feDistantLight7222"
           elevation="45"
           azimuth="225" />
      </feSpecularLighting>
      <feComposite
         id="feComposite7224"
         operator="atop"
         in2="result3" />
    </filter>
    <filter
       id="filter7226"
       style="color-interpolation-filters:sRGB"
       inkscape:menu-tooltip="Soft bevel, slightly depressed middle"
       inkscape:menu="Bevels"
       inkscape:label="Button">
      <feGaussianBlur
         id="feGaussianBlur7228"
         result="result0"
         in="SourceAlpha"
         stdDeviation="2.3" />
      <feMorphology
         id="feMorphology7230"
         result="result1"
         radius="6.6"
         in="SourceAlpha" />
      <feGaussianBlur
         id="feGaussianBlur7232"
         in="result1"
         stdDeviation="8.9" />
      <feColorMatrix
         id="feColorMatrix7234"
         result="result91"
         values="1 0 0 0 0 0 1 0 0 0 0 0 1 0 0 0 0 0 0.3 0" />
      <feComposite
         id="feComposite7236"
         in2="result91"
         result="result2"
         operator="out"
         in="result0" />
      <feGaussianBlur
         id="feGaussianBlur7238"
         result="result4"
         stdDeviation="1.7" />
      <feDiffuseLighting
         id="feDiffuseLighting7240"
         surfaceScale="10">
        <feDistantLight
           id="feDistantLight7242"
           elevation="45"
           azimuth="225" />
      </feDiffuseLighting>
      <feBlend
         id="feBlend7244"
         mode="multiply"
         in2="SourceGraphic" />
      <feComposite
         id="feComposite7246"
         result="result3"
         operator="in"
         in2="SourceAlpha" />
      <feSpecularLighting
         id="feSpecularLighting7248"
         specularExponent="17.89999962"
         surfaceScale="5"
         in="result4">
        <feDistantLight
           id="feDistantLight7250"
           elevation="45"
           azimuth="225" />
      </feSpecularLighting>
      <feComposite
         id="feComposite7252"
         operator="atop"
         in2="result3" />
    </filter>
    <filter
       id="filter7254"
       style="color-interpolation-filters:sRGB"
       inkscape:menu-tooltip="Soft bevel, slightly depressed middle"
       inkscape:menu="Bevels"
       inkscape:label="Button">
      <feGaussianBlur
         id="feGaussianBlur7256"
         result="result0"
         in="SourceAlpha"
         stdDeviation="2.3" />
      <feMorphology
         id="feMorphology7258"
         result="result1"
         radius="6.6"
         in="SourceAlpha" />
      <feGaussianBlur
         id="feGaussianBlur7260"
         in="result1"
         stdDeviation="8.9" />
      <feColorMatrix
         id="feColorMatrix7262"
         result="result91"
         values="1 0 0 0 0 0 1 0 0 0 0 0 1 0 0 0 0 0 0.3 0" />
      <feComposite
         id="feComposite7264"
         in2="result91"
         result="result2"
         operator="out"
         in="result0" />
      <feGaussianBlur
         id="feGaussianBlur7266"
         result="result4"
         stdDeviation="1.7" />
      <feDiffuseLighting
         id="feDiffuseLighting7268"
         surfaceScale="10">
        <feDistantLight
           id="feDistantLight7270"
           elevation="45"
           azimuth="225" />
      </feDiffuseLighting>
      <feBlend
         id="feBlend7272"
         mode="multiply"
         in2="SourceGraphic" />
      <feComposite
         id="feComposite7274"
         result="result3"
         operator="in"
         in2="SourceAlpha" />
      <feSpecularLighting
         id="feSpecularLighting7276"
         specularExponent="17.89999962"
         surfaceScale="5"
         in="result4">
        <feDistantLight
           id="feDistantLight7278"
           elevation="45"
           azimuth="225" />
      </feSpecularLighting>
      <feComposite
         id="feComposite7280"
         operator="atop"
         in2="result3" />
    </filter>
    <filter
       id="filter7850"
       style="color-interpolation-filters:sRGB"
       inkscape:menu-tooltip="Ridged border with inner bevel"
       inkscape:menu="Bevels"
       inkscape:label="Ridged Border">
      <feMorphology
         id="feMorphology7852"
         result="result91"
         in="SourceAlpha"
         radius="4.3" />
      <feComposite
         id="feComposite7854"
         in2="result91"
         in="SourceGraphic"
         operator="out" />
      <feGaussianBlur
         id="feGaussianBlur7856"
         stdDeviation="1.2"
         result="result0" />
      <feDiffuseLighting
         id="feDiffuseLighting7858"
         diffuseConstant="1">
        <feDistantLight
           id="feDistantLight7860"
           azimuth="225"
           elevation="66" />
      </feDiffuseLighting>
      <feBlend
         id="feBlend7862"
         in2="SourceGraphic"
         mode="multiply" />
      <feComposite
         id="feComposite7864"
         in2="SourceAlpha"
         operator="in" />
    </filter>
    <filter
       id="filter7868"
       style="color-interpolation-filters:sRGB"
       inkscape:menu-tooltip="Soft bevel, slightly depressed middle"
       inkscape:menu="Bevels"
       inkscape:label="Button">
      <feGaussianBlur
         id="feGaussianBlur7870"
         result="result0"
         in="SourceAlpha"
         stdDeviation="2.3" />
      <feMorphology
         id="feMorphology7872"
         result="result1"
         radius="6.6"
         in="SourceAlpha" />
      <feGaussianBlur
         id="feGaussianBlur7874"
         in="result1"
         stdDeviation="8.9" />
      <feColorMatrix
         id="feColorMatrix7876"
         result="result91"
         values="1 0 0 0 0 0 1 0 0 0 0 0 1 0 0 0 0 0 0.3 0" />
      <feComposite
         id="feComposite7878"
         in2="result91"
         result="result2"
         operator="out"
         in="result0" />
      <feGaussianBlur
         id="feGaussianBlur7880"
         result="result4"
         stdDeviation="1.7" />
      <feDiffuseLighting
         id="feDiffuseLighting7882"
         surfaceScale="10">
        <feDistantLight
           id="feDistantLight7884"
           elevation="45"
           azimuth="225" />
      </feDiffuseLighting>
      <feBlend
         id="feBlend7886"
         mode="multiply"
         in2="SourceGraphic" />
      <feComposite
         id="feComposite7888"
         result="result3"
         operator="in"
         in2="SourceAlpha" />
      <feSpecularLighting
         id="feSpecularLighting7890"
         specularExponent="17.89999962"
         surfaceScale="5"
         in="result4">
        <feDistantLight
           id="feDistantLight7892"
           elevation="45"
           azimuth="225" />
      </feSpecularLighting>
      <feComposite
         id="feComposite7894"
         operator="atop"
         in2="result3" />
    </filter>
    <clipPath
       clipPathUnits="userSpaceOnUse"
       id="clipPath6820">
      <circle
         style="opacity:1;fill:#800000;fill-opacity:1;fill-rule:nonzero;stroke:none;stroke-width:0.6796003;stroke-linecap:round;stroke-linejoin:round;stroke-miterlimit:4;stroke-dasharray:none;stroke-dashoffset:0;stroke-opacity:1"
         id="circle6822"
         cx="324.31299"
         cy="402.47751"
         r="77.070671" />
    </clipPath>
    <clipPath
       clipPathUnits="userSpaceOnUse"
       id="clipPath7211">
      <circle
         style="opacity:1;fill:#00ff00;fill-opacity:1;fill-rule:nonzero;stroke:none;stroke-width:5;stroke-linecap:round;stroke-linejoin:round;stroke-miterlimit:4;stroke-dasharray:none;stroke-dashoffset:0;stroke-opacity:1"
         id="circle7213"
         cx="793.2074"
         cy="293.64078"
         r="65.528046" />
    </clipPath>
    <clipPath
       clipPathUnits="userSpaceOnUse"
       id="clipPath7389">
      <circle
         style="opacity:1;fill:#800000;fill-opacity:1;fill-rule:nonzero;stroke:none;stroke-width:0.6796003;stroke-linecap:round;stroke-linejoin:round;stroke-miterlimit:4;stroke-dasharray:none;stroke-dashoffset:0;stroke-opacity:1"
         id="circle7391"
         cx="325.62918"
         cy="406.26419"
         r="80.857353" />
    </clipPath>
    <inkscape:perspective
       id="perspective34-6"
       inkscape:persp3d-origin="37.500001 : 37.666667 : 1"
       inkscape:vp_z="75.000002 : 56.5 : 1"
       inkscape:vp_y="0 : 1000 : 0"
       inkscape:vp_x="0 : 56.5 : 1"
       sodipodi:type="inkscape:persp3d" />
    <marker
       id="Dot_l-3"
       inkscape:stockid="Dot_l"
       orient="auto"
       refX="0"
       refY="0"
       style="overflow:visible">
      <path
         d="m -2.5,-1 c 0,2.76 -2.24,5 -5,5 -2.76,0 -5,-2.24 -5,-5 0,-2.76 2.24,-5 5,-5 2.76,0 5,2.24 5,5 z"
         id="path41-96"
         style="fill-rule:evenodd;stroke:#000000;stroke-width:1pt;marker-start:none;marker-end:none"
         transform="matrix(0.8,0,0,0.8,5.700394,0.8)"
         inkscape:connector-curvature="0" />
    </marker>
    <linearGradient
       gradientUnits="userSpaceOnUse"
       y2="421.99857"
       x2="-53.435585"
       y1="382.33835"
       x1="-87.488884"
       id="linearGradient5659"
       xlink:href="#linearGradient5325"
       inkscape:collect="always" />
    <inkscape:perspective
       id="perspective10-5"
       inkscape:persp3d-origin="372.04725 : 350.78739 : 1"
       inkscape:vp_z="744.0945 : 526.18109 : 1"
       inkscape:vp_y="0 : 1000 : 0"
       inkscape:vp_x="0 : 526.18109 : 1"
       sodipodi:type="inkscape:persp3d" />
    <marker
       id="Dot_l-5-5"
       inkscape:stockid="Dot_l"
       orient="auto"
       refX="0"
       refY="0"
       style="overflow:visible">
      <path
         inkscape:connector-curvature="0"
         d="m -2.5,-1 c 0,2.76 -2.24,5 -5,5 -2.76,0 -5,-2.24 -5,-5 0,-2.76 2.24,-5 5,-5 2.76,0 5,2.24 5,5 z"
         id="path41-7-5"
         style="fill-rule:evenodd;stroke:#000000;stroke-width:1pt;marker-start:none;marker-end:none"
         transform="matrix(0.8,0,0,0.8,5.700394,0.8)" />
    </marker>
    <linearGradient
       gradientTransform="matrix(1.009653,0,0,0.63181,-20.07563,-156.0979)"
       gradientUnits="userSpaceOnUse"
       y2="344.86487"
       x2="47.567574"
       y1="339.09912"
       x1="500"
       id="linearGradient5664"
       xlink:href="#linearGradient4413"
       inkscape:collect="always" />
    <radialGradient
       gradientUnits="userSpaceOnUse"
       gradientTransform="matrix(1,0,0,0.107595,0,346.3496)"
       r="56.936935"
       fy="388.10809"
       fx="69.909912"
       cy="388.10809"
       cx="69.909912"
       id="radialGradient7945-9"
       xlink:href="#linearGradient7939"
       inkscape:collect="always" />
    <radialGradient
       r="56.936935"
       fy="388.10809"
       fx="69.909912"
       cy="388.10809"
       cx="69.909912"
       gradientTransform="matrix(1,0,0,0.107595,0,346.3496)"
       gradientUnits="userSpaceOnUse"
       id="radialGradient7949-6"
       xlink:href="#linearGradient7939"
       inkscape:collect="always" />
    <radialGradient
       r="56.936935"
       fy="388.10809"
       fx="69.909912"
       cy="388.10809"
       cx="69.909912"
       gradientTransform="matrix(1,0,0,0.107595,0,346.3496)"
       gradientUnits="userSpaceOnUse"
       id="radialGradient7953-5"
       xlink:href="#linearGradient7939"
       inkscape:collect="always" />
    <style
       type="text/css"
       id="style3297-0">
   
    @font-face { font-family:&quot;Arial&quot;;src:url(&quot;#FontID0&quot;) format(svg)}
    .str1 {stroke:#1F1A17;stroke-width:0.0762;stroke-linecap:round;stroke-linejoin:round}
    .str0 {stroke-width:0.6672;stroke-linecap:round;stroke-linejoin:round}
    .str2 {stroke-width:0.7411;stroke-linecap:round;stroke-linejoin:round}
    .str3 {stroke-width:0.7414;stroke-linecap:round;stroke-linejoin:round}
    .str4 {stroke:#1F1A17;stroke-width:0.0762}
    .fil0 {fill:#1F1A17}
    .fil3 {fill:#72706F}
    .fil4 {fill:#AAA9A9}
    .fil2 {fill:white}
    .fil1 {fill:#1F1A17;fill-rule:nonzero}
    .fnt2 {font-weight:bold;font-size:102.784;font-family:'Arial'}
    .fnt1 {font-weight:bold;font-size:102.817;font-family:'Arial'}
    .fnt0 {font-weight:bold;font-size:114.204;font-family:'Arial'}
   
  </style>
    <font
       style="font-style:normal;font-variant:normal;font-weight:700;stroke-width:0.66720003;stroke-linecap:round;stroke-linejoin:round"
       vert-adv-y="90"
       vert-origin-y="90"
       vert-origin-x="45"
       horiz-adv-x="90"
       horiz-origin-y="0"
       horiz-origin-x="0"
       id="font3299-0"
       font-variant="normal"
       class="str0"
       font-style="normal"
       font-weight="700">
      <font-face
         font-family="Arial"
         id="font-face3301-9" />
      <missing-glyph
         id="missing-glyph3303-5">
        <path
           d="M0 0z"
           id="path3305-9" />
      </missing-glyph>
      <glyph
         unicode=" "
         horiz-adv-x="277"
         id="glyph3307-2" />
      <glyph
         unicode=","
         horiz-adv-x="277"
         id="glyph3309-6">
        <path
           d="M68.3336 137.166l137.166 0 0 -98.1661c0,-39.6666 -3.3335,-70.9999 -10.1669,-93.9999 -6.83336,-22.8336 -19.8329,-43.5001 -38.833,-61.6666 -19.0001,-18.3338 -43.1665,-32.6669 -72.4998,-43.0001l-26.8335 56.6659c27.6662,9.1669 47.3336,21.6673 58.9995,37.5003 11.834,16.0003 18.0002,37.833 18.6674,65.5001l-66.5001 0 0 137.166z"
           id="path3311-6" />
      </glyph>
      <glyph
         unicode="”"
         horiz-adv-x="500"
         id="glyph3313-5">
        <path
           d="M293 715.833l137.166 0 0 -98.667c0,-39.6666 -3.49987,-70.9999 -10.4996,-93.6663 -7.00061,-22.8336 -20.0001,-43.5001 -39.0002,-61.833 -19.1665,-18.3338 -43.1665,-32.8332 -71.9999,-43.1673l-26.9998 57.1668c27.4998,9.00053 46.9999,21.6673 58.8331,38.0003 11.9995,16.333 18.0002,38.0003 18.3329,65.0001l-65.8328 0 0 137.166zm-230.5 0l137.166 0 0 -98.667c0,-39.6666 -3.3335,-70.9999 -10.1669,-93.6663 -6.83336,-22.8336 -19.8329,-43.5001 -38.833,-61.833 -19.0001,-18.3338 -43.1665,-32.8332 -72.4998,-43.1673l-26.8335 57.1668c27.6662,9.00053 47.3336,21.6673 59.0004,38.0003 11.6659,16.333 17.9993,38.0003 18.4993,65.0001l-66.3328 0 0 137.166z"
           id="path3315-4" />
      </glyph>
      <glyph
         unicode="“"
         horiz-adv-x="500"
         id="glyph3317-2">
        <path
           d="M201.666 425.833l-137.166 0 0 98.167c0,39.6666 3.49987,70.9999 10.4996,93.9999 7.00061,22.8336 19.8337,43.5001 38.8339,61.6666 18.8329,18.3338 42.8329,32.5005 72.1662,43.0001l26.8335 -56.6668c-27.3334,-9.16602 -46.8336,-21.8328 -58.8331,-37.9994 -11.8332,-16.3339 -18.1666,-38.0003 -18.6665,-65.0001l66.3328 0 0 -137.167zm229 0l-137.166 0 0 98.167c0,40.0002 3.49987,71.3335 10.4996,94.1671 7.00061,22.8327 20.0001,43.3328 39.0002,61.4994 19.0001,18.3338 43.0001,32.5005 71.9999,43.0001l26.8335 -56.6668c-27.3334,-9.16602 -46.8336,-21.8328 -58.8331,-37.9994 -11.8332,-16.3339 -18.1666,-38.0003 -18.6665,-65.0001l66.3328 0 0 -137.167z"
           id="path3319-9" />
      </glyph>
      <glyph
         unicode="E"
         horiz-adv-x="666"
         id="glyph3321-5">
        <path
           d="M72.833 0l0 715.833 530.667 0 0 -121.166 -386.167 0 0 -158.667 359.334 0 0 -120.5 -359.334 0 0 -194.834 399.834 0 0 -120.666 -544.334 0z"
           id="path3323-3" />
      </glyph>
      <glyph
         unicode="F"
         horiz-adv-x="610"
         id="glyph3325-0">
        <path
           d="M73.6665 0l0 715.833 490.833 0 0 -121.166 -346.166 0 0 -169.333 298.833 0 0 -121.167 -298.833 0 0 -304.166 -144.667 0z"
           id="path3327-3" />
      </glyph>
      <glyph
         unicode="N"
         horiz-adv-x="722"
         id="glyph3329-6">
        <path
           d="M74.167 0l0 715.833 140.666 0 293 -478 0 478 134.334 0 0 -715.833 -145.167 0 -288.5 466.833 0 -466.833 -134.333 0z"
           id="path3331-5" />
      </glyph>
      <glyph
         unicode="O"
         horiz-adv-x="777"
         id="glyph3333-7">
        <path
           d="M43.5001 353.5c0,72.9998 10.8332,134.166 32.6669,183.666 16.333,36.3331 38.4994,69.1663 66.6664,98.167 28.167,28.8334 59.0004,50.3326 92.4999,64.3329 44.6664,19.0001 95.9998,28.3334 154.333,28.3334 105.5,0 189.833,-32.6669 253.167,-98.167 63.3329,-65.3329 94.9998,-156.333 94.9998,-272.833 0,-115.667 -31.4997,-206 -94.3335,-271.334 -62.833,-65.1665 -146.833,-97.8334 -251.833,-97.8334 -106.5,0 -191.167,32.5005 -254.001,97.3334 -62.833,65.0001 -94.1662,154.5 -94.1662,268.334zm148.833 4.83256c0,-80.9995 18.8338,-142.5 56.1668,-184.333 37.5003,-41.8338 85.0002,-62.6666 142.667,-62.6666 57.4995,0 104.833,20.6665 141.833,62.333 36.834,41.5002 55.3341,103.667 55.3341,186.667 0,81.9995 -18.0002,143.166 -53.8342,183.666 -35.9995,40.3329 -83.833,60.5003 -143.332,60.5003 -59.6667,0 -107.667,-20.5001 -144.167,-61.3339 -36.3331,-40.8329 -54.6669,-102.333 -54.6669,-184.834z"
           id="path3335-8" />
      </glyph>
      <glyph
         unicode="H"
         horiz-adv-x="722"
         id="glyph3337-7">
        <path
           d="M73.1671 0l0 715.833 144.666 0 0 -281.667 283.167 0 0 281.667 144.5 0 0 -715.833 -144.5 0 0 313 -283.167 0 0 -313 -144.666 0z"
           id="path3339-6" />
      </glyph>
      <glyph
         unicode="I"
         horiz-adv-x="277"
         id="glyph3341-3">
        <path
           d="M68.3336 0l0 715.833 144.5 0 0 -715.833 -144.5 0z"
           id="path3343-8" />
      </glyph>
      <glyph
         unicode="A"
         horiz-adv-x="722"
         id="glyph3345-3">
        <path
           d="M718.333 0l-157.333 0 -62.5002 162.666 -286.167 0 -59.0004 -162.666 -153.333 0 278.833 715.833 152.833 0 286.667 -715.833zm-266.167 283.167l-98.6661 265.667 -96.667 -265.667 195.333 0z"
           id="path3347-1" />
      </glyph>
      <glyph
         unicode="Z"
         horiz-adv-x="610"
         id="glyph3349-1">
        <path
           d="M10.667 0l0 130.334 376 464.333 -333.5 0 0 121.166 523.999 0 0 -112.333 -392.166 -482.833 407.333 0 0 -120.667 -581.666 0z"
           id="path3351-6" />
      </glyph>
      <glyph
         unicode="U"
         horiz-adv-x="722"
         id="glyph3353-8">
        <path
           d="M71.8332 715.833l144.5 0 0 -387.667c0,-61.4993 1.83335,-101.499 5.33373,-119.667 6.16627,-29.3326 21.0003,-52.8335 44.1666,-70.4997 23.3336,-17.8336 55.1667,-26.6667 95.5004,-26.6667 40.9999,0 71.9995,8.33322 92.8325,25.1669 20.834,16.6664 33.3339,37.3332 37.5005,61.6666 4.33292,24.4997 6.33356,64.9997 6.33356,121.666l0 396 144.5 0 0 -376c0,-86 -3.83398,-146.667 -11.6673,-182.167 -7.8333,-35.4998 -22.1665,-65.3333 -43.1658,-89.834 -21.0003,-24.3325 -49.1668,-43.833 -84.1667,-58.3325 -35.1672,-14.5005 -81.1672,-21.6666 -137.834,-21.6666 -68.3338,0 -120.166,7.8333 -155.5,23.6662 -35.3335,15.8329 -63.1664,36.3333 -83.6668,61.5003 -20.5004,25.166 -34.0001,51.6664 -40.5,79.3329 -9.50034,40.9999 -14.1669,101.5 -14.1669,181.667l0 381.833z"
           id="path3355-6" />
      </glyph>
      <glyph
         unicode="Y"
         horiz-adv-x="666"
         id="glyph3357-7">
        <path
           d="M260.667 0l0 301.333 -262.167 414.5 169.5 0 168.501 -283.167 165 283.167 166.5 0 -263.167 -415.5 0 -300.333 -144.166 0z"
           id="path3359-0" />
      </glyph>
      <glyph
         unicode="R"
         horiz-adv-x="722"
         id="glyph3361-4">
        <path
           d="M73.1666 0l0 715.833 304.334 0c76.4997,0 132,-6.49987 166.666,-19.3333 34.6663,-12.8334 62.5001,-35.6661 83.3332,-68.5001 20.833,-32.9993 31.1669,-70.4997 31.1669,-112.833 0,-53.667 -15.8329,-98.1663 -47.3334,-133.167 -31.4995,-34.8326 -78.833,-56.9991 -141.667,-65.9995 31.3332,-18.3335 57.1664,-38.333 77.5005,-60.1669 20.3331,-21.8329 47.6661,-60.4995 82.1661,-116.166l87.4998 -139.667 -172.833 0 -104.501 155.834c-37.1659,55.6666 -62.4991,90.6666 -76.1661,105.166 -13.6669,14.5005 -28.1664,24.3334 -43.5004,29.8335 -15.333,5.33373 -39.5001,8.00059 -72.833,8.00059l-29.1663 0 0 -298.834 -144.667 0zm144.667 413.166l106.833 0c69.3336,0 112.667,2.83318 129.999,8.66682 17.1673,5.83364 30.667,16.0002 40.5,30.3334 9.66762,14.3332 14.6668,32.1667 14.6668,53.667 0,24.1661 -6.49987,43.4994 -19.3333,58.3335 -12.8334,14.8331 -30.9996,24.1661 -54.4995,28.1664 -11.6663,1.49975 -46.8335,2.33326 -105.5,2.33326l-112.667 0 0 -181.5z"
           id="path3363-9" />
      </glyph>
      <glyph
         unicode="T"
         horiz-adv-x="610"
         id="glyph3365-7">
        <path
           d="M233.833 0l0 594.666 -212.333 0 0 121.167 568.834 0 0 -121.167 -211.833 0 0 -594.666 -144.667 0z"
           id="path3367-4" />
      </glyph>
      <glyph
         unicode="P"
         horiz-adv-x="666"
         id="glyph3369-8">
        <path
           d="M72.8334 0l0 715.833 231.833 0c87.8329,0 145.166,-3.66623 171.833,-10.8332 41.0002,-10.6668 75.4997,-34.0004 103.167,-69.9999 27.6662,-36.0004 41.5002,-82.5003 41.5002,-139.334 0,-44.0001 -8.00057,-80.9995 -24,-110.833 -16.0003,-30.0006 -36.1667,-53.5006 -60.8339,-70.6672 -24.4999,-17.0002 -49.4998,-28.3334 -74.8334,-33.8332 -34.4995,-6.83336 -84.4994,-10.3332 -149.999,-10.3332l-94.1671 0 0 -270 -144.5 0zm144.5 594.666l0 -202.999 79.0005 0c56.9996,0 95.1662,3.66623 114.333,11.1659 19.1674,7.50059 34.1668,19.1674 45.1673,35.1668 10.8332,16.0003 16.333,34.5004 16.333,55.6669 0,25.9999 -7.66696,47.4999 -23,64.5001 -15.1667,16.833 -34.6668,27.4998 -57.9995,31.6669 -17.3338,3.33262 -52.0006,4.83256 -104,4.83256l-69.8336 0z"
           id="path3371-6" />
      </glyph>
    </font>
    <style
       type="text/css"
       id="style3373-4">
   
    @font-face { font-family:&quot;Arial&quot;;src:url(&quot;#FontID0&quot;) format(svg)}
    .str5 {stroke:#1F1A17;stroke-width:0.0762}
    .str1 {stroke:#1F1A17;stroke-width:0.0762;stroke-linecap:round;stroke-linejoin:round}
    .str0 {stroke-width:0.6672;stroke-linecap:round;stroke-linejoin:round}
    .str2 {stroke-width:0.7411;stroke-linecap:round;stroke-linejoin:round}
    .str3 {stroke-width:0.7414;stroke-linecap:round;stroke-linejoin:round}
    .str4 {stroke-width:13.5001}
    .str6 {stroke:#1F1A17;stroke-width:0.0762}
    .fil0 {fill:#1F1A17}
    .fil3 {fill:#72706F}
    .fil4 {fill:#AAA9A9}
    .fil2 {fill:white}
    .fil1 {fill:#1F1A17;fill-rule:nonzero}
    .fnt3 {font-weight:bold;font-size:5.6444;font-family:'Arial'}
    .fnt2 {font-weight:bold;font-size:102.784;font-family:'Arial'}
    .fnt1 {font-weight:bold;font-size:102.817;font-family:'Arial'}
    .fnt0 {font-weight:bold;font-size:114.204;font-family:'Arial'}
   
  </style>
    <font
       style="font-style:normal;font-variant:normal;font-weight:700;stroke-width:0.66720003;stroke-linecap:round;stroke-linejoin:round"
       vert-adv-y="90"
       vert-origin-y="90"
       vert-origin-x="45"
       horiz-adv-x="90"
       horiz-origin-y="0"
       horiz-origin-x="0"
       id="font3375-8"
       font-variant="normal"
       class="str0"
       font-style="normal"
       font-weight="700">
      <font-face
         font-family="Arial"
         id="font-face3377-6" />
      <missing-glyph
         id="missing-glyph3379-6">
        <path
           d="M0 0z"
           id="path3381-6" />
      </missing-glyph>
      <glyph
         unicode=" "
         horiz-adv-x="277"
         id="glyph3383-1" />
      <glyph
         unicode=","
         horiz-adv-x="277"
         id="glyph3385-9">
        <path
           d="M68.3336 137.166l137.166 0 0 -98.1661c0,-39.6666 -3.3335,-70.9999 -10.1669,-93.9999 -6.83336,-22.8336 -19.8329,-43.5001 -38.833,-61.6666 -19.0001,-18.3338 -43.1665,-32.6669 -72.4998,-43.0001l-26.8335 56.6659c27.6662,9.1669 47.3336,21.6673 58.9995,37.5003 11.834,16.0003 18.0002,37.833 18.6674,65.5001l-66.5001 0 0 137.166z"
           id="path3387-6" />
      </glyph>
      <glyph
         unicode="”"
         horiz-adv-x="500"
         id="glyph3389-8">
        <path
           d="M293 715.833l137.166 0 0 -98.667c0,-39.6666 -3.49987,-70.9999 -10.4996,-93.6663 -7.00061,-22.8336 -20.0001,-43.5001 -39.0002,-61.833 -19.1665,-18.3338 -43.1665,-32.8332 -71.9999,-43.1673l-26.9998 57.1668c27.4998,9.00053 46.9999,21.6673 58.8331,38.0003 11.9995,16.333 18.0002,38.0003 18.3329,65.0001l-65.8328 0 0 137.166zm-230.5 0l137.166 0 0 -98.667c0,-39.6666 -3.3335,-70.9999 -10.1669,-93.6663 -6.83336,-22.8336 -19.8329,-43.5001 -38.833,-61.833 -19.0001,-18.3338 -43.1665,-32.8332 -72.4998,-43.1673l-26.8335 57.1668c27.6662,9.00053 47.3336,21.6673 59.0004,38.0003 11.6659,16.333 17.9993,38.0003 18.4993,65.0001l-66.3328 0 0 137.166z"
           id="path3391-1" />
      </glyph>
      <glyph
         unicode="“"
         horiz-adv-x="500"
         id="glyph3393-3">
        <path
           d="M201.666 425.833l-137.166 0 0 98.167c0,39.6666 3.49987,70.9999 10.4996,93.9999 7.00061,22.8336 19.8337,43.5001 38.8339,61.6666 18.8329,18.3338 42.8329,32.5005 72.1662,43.0001l26.8335 -56.6668c-27.3334,-9.16602 -46.8336,-21.8328 -58.8331,-37.9994 -11.8332,-16.3339 -18.1666,-38.0003 -18.6665,-65.0001l66.3328 0 0 -137.167zm229 0l-137.166 0 0 98.167c0,40.0002 3.49987,71.3335 10.4996,94.1671 7.00061,22.8327 20.0001,43.3328 39.0002,61.4994 19.0001,18.3338 43.0001,32.5005 71.9999,43.0001l26.8335 -56.6668c-27.3334,-9.16602 -46.8336,-21.8328 -58.8331,-37.9994 -11.8332,-16.3339 -18.1666,-38.0003 -18.6665,-65.0001l66.3328 0 0 -137.167z"
           id="path3395-0" />
      </glyph>
      <glyph
         unicode="L"
         horiz-adv-x="610"
         id="glyph3397-6">
        <path
           d="M76.6069 0.0354333l0.0177167 709.712 144.515 0.141733 0.0885834 -589.327 359.276 0 -0.141733 -120.615 -503.756 0.0885834z"
           id="path3399-4" />
      </glyph>
      <glyph
         unicode="E"
         horiz-adv-x="666"
         id="glyph3401-8">
        <path
           d="M72.6915 -0.0354333l-0.0354333 715.754 530.792 0.0354333 0.05315 -121.164 -386.224 0.0177167 -0.05315 -158.582 359.383 0.05315 -0.0354333 -120.633 -359.383 -0.0708667 0.1063 -194.742 399.794 0.0354333 -0.0354333 -120.651 -544.363 -0.05315z"
           id="path3403-9" />
      </glyph>
      <glyph
         unicode="F"
         horiz-adv-x="610"
         id="glyph3405-9">
        <path
           d="M73.6665 0l0 715.833 490.833 0 0 -121.166 -346.166 0 0 -169.333 298.833 0 0 -121.167 -298.833 0 0 -304.166 -144.667 0z"
           id="path3407-6" />
      </glyph>
      <glyph
         unicode="N"
         horiz-adv-x="722"
         id="glyph3409-9">
        <path
           d="M74.2506 0.0708667l-0.0177167 715.754 140.6 -0.0177167 292.963 -478.084 -0.0177167 478.12 134.222 -0.0354333 0.0177167 -715.754 -144.958 -0.0177167 -288.622 466.728 0.0354333 -466.728 -134.222 0.0354333z"
           id="path3411-5" />
      </glyph>
      <glyph
         unicode="O"
         horiz-adv-x="777"
         id="glyph3413-9">
        <path
           d="M43.4059 353.465c0.05315,72.8864 11.0021,134.151 32.7936,183.669 16.2816,36.4964 38.4098,69.095 66.5261,98.0972 28.2581,28.8959 59.0674,50.4394 92.6051,64.5064 44.6106,18.886 96.0952,28.2049 154.259,28.2581 105.556,-0.0354333 189.976,-32.6695 253.295,-98.1504 63.1954,-65.3745 94.8551,-156.35 94.8728,-272.819 0.0708667,-115.743 -31.4648,-206.063 -94.235,-271.402 -62.6993,-65.1796 -146.871,-97.8315 -251.913,-97.9023 -106.53,0.0354333 -191.021,32.5278 -253.862,97.5126 -62.8588,64.9848 -94.3413,154.295 -94.3413,268.23zm149.015 4.96067c-0.0885834,-81.0361 18.7797,-142.531 56.0556,-184.377 37.4885,-41.7759 84.9869,-62.7347 142.548,-62.6993 57.7209,-0.0708667 105.007,20.7108 142.017,62.2387 36.7798,41.4747 55.3823,103.802 55.3115,186.875 0,81.851 -17.9647,143.204 -53.8764,183.456 -36.0534,40.3232 -83.7467,60.6087 -143.399,60.6796 -59.5812,-0.15945 -107.593,-20.5159 -144.037,-61.4237 -36.4432,-40.9078 -54.7445,-102.438 -54.6205,-184.749z"
           id="path3415-5" />
      </glyph>
      <glyph
         unicode="H"
         horiz-adv-x="722"
         id="glyph3417-2">
        <path
           d="M73.1699 0.05315l0.141733 715.399 144.391 0.0885834 -0.05315 -281.731 283.095 0.124017 -0.05315 281.518 144.55 0.141733 -0.0708667 -715.559 -144.391 -0.0708667 0.0177167 312.947 -283.095 -0.124017 -0.0708667 -312.806 -144.462 0.0708667z"
           id="path3419-3" />
      </glyph>
      <glyph
         unicode="I"
         horiz-adv-x="277"
         id="glyph3421-8">
        <path
           d="M68.3336 0l0 715.833 144.5 0 0 -715.833 -144.5 0z"
           id="path3423-4" />
      </glyph>
      <glyph
         unicode="A"
         horiz-adv-x="722"
         id="glyph3425-2">
        <path
           d="M718.163 0.05315l-157.218 -0.124017 -62.469 162.604 -286.124 0 -59.032 -162.533 -153.32 0 278.843 715.825 152.806 -0.1063 286.514 -715.665zm-266.016 283.112l-98.6642 265.644 -96.733 -265.626 195.397 -0.0177167z"
           id="path3427-8" />
      </glyph>
      <glyph
         unicode="Z"
         horiz-adv-x="610"
         id="glyph3429-4">
        <path
           d="M10.667 0l0 130.334 376 464.333 -333.5 0 0 121.166 523.999 0 0 -112.333 -392.166 -482.833 407.333 0 0 -120.667 -581.666 0z"
           id="path3431-5" />
      </glyph>
      <glyph
         unicode="U"
         horiz-adv-x="722"
         id="glyph3433-2">
        <path
           d="M71.8332 715.833l144.5 0 0 -387.667c0,-61.4993 1.83335,-101.499 5.33373,-119.667 6.16627,-29.3326 21.0003,-52.8335 44.1666,-70.4997 23.3336,-17.8336 55.1667,-26.6667 95.5004,-26.6667 40.9999,0 71.9995,8.33322 92.8325,25.1669 20.834,16.6664 33.3339,37.3332 37.5005,61.6666 4.33292,24.4997 6.33356,64.9997 6.33356,121.666l0 396 144.5 0 0 -376c0,-86 -3.83398,-146.667 -11.6673,-182.167 -7.8333,-35.4998 -22.1665,-65.3333 -43.1658,-89.834 -21.0003,-24.3325 -49.1668,-43.833 -84.1667,-58.3325 -35.1672,-14.5005 -81.1672,-21.6666 -137.834,-21.6666 -68.3338,0 -120.166,7.8333 -155.5,23.6662 -35.3335,15.8329 -63.1664,36.3333 -83.6668,61.5003 -20.5004,25.166 -34.0001,51.6664 -40.5,79.3329 -9.50034,40.9999 -14.1669,101.5 -14.1669,181.667l0 381.833z"
           id="path3435-5" />
      </glyph>
      <glyph
         unicode="Y"
         horiz-adv-x="666"
         id="glyph3437-1">
        <path
           d="M260.667 0l0 301.333 -262.167 414.5 169.5 0 168.501 -283.167 165 283.167 166.5 0 -263.167 -415.5 0 -300.333 -144.166 0z"
           id="path3439-5" />
      </glyph>
      <glyph
         unicode="R"
         horiz-adv-x="722"
         id="glyph3441-1">
        <path
           d="M73.1666 0l0 715.833 304.334 0c76.4997,0 132,-6.49987 166.666,-19.3333 34.6663,-12.8334 62.5001,-35.6661 83.3332,-68.5001 20.833,-32.9993 31.1669,-70.4997 31.1669,-112.833 0,-53.667 -15.8329,-98.1663 -47.3334,-133.167 -31.4995,-34.8326 -78.833,-56.9991 -141.667,-65.9995 31.3332,-18.3335 57.1664,-38.333 77.5005,-60.1669 20.3331,-21.8329 47.6661,-60.4995 82.1661,-116.166l87.4998 -139.667 -172.833 0 -104.501 155.834c-37.1659,55.6666 -62.4991,90.6666 -76.1661,105.166 -13.6669,14.5005 -28.1664,24.3334 -43.5004,29.8335 -15.333,5.33373 -39.5001,8.00059 -72.833,8.00059l-29.1663 0 0 -298.834 -144.667 0zm144.667 413.166l106.833 0c69.3336,0 112.667,2.83318 129.999,8.66682 17.1673,5.83364 30.667,16.0002 40.5,30.3334 9.66762,14.3332 14.6668,32.1667 14.6668,53.667 0,24.1661 -6.49987,43.4994 -19.3333,58.3335 -12.8334,14.8331 -30.9996,24.1661 -54.4995,28.1664 -11.6663,1.49975 -46.8335,2.33326 -105.5,2.33326l-112.667 0 0 -181.5z"
           id="path3443-9" />
      </glyph>
      <glyph
         unicode="T"
         horiz-adv-x="610"
         id="glyph3445-8">
        <path
           d="M233.825 0.0708667l0.0354333 594.642 -212.458 -0.1063 0.15945 121.164 568.617 -0.0708667 0 -121.005 -211.785 -0.0708667 -0.0354333 -594.66 -144.533 0.1063z"
           id="path3447-9" />
      </glyph>
      <glyph
         unicode="P"
         horiz-adv-x="666"
         id="glyph3449-3">
        <path
           d="M72.7447 -0.0708667l0 715.931 231.947 -0.0885834c87.8038,0.0177167 145.153,-3.5079 171.887,-10.754 40.9964,-10.6123 75.2959,-33.9806 103.04,-69.9454 27.5849,-35.9826 41.5279,-82.4534 41.4747,-139.43 -0.0708667,-43.9196 -7.91935,-80.9475 -23.8644,-110.942 -15.9804,-29.8349 -36.2838,-53.4158 -60.7859,-70.5655 -24.697,-17.008 -49.6421,-28.3467 -75.0478,-33.8743 -34.4766,-6.8032 -84.3845,-10.2048 -149.919,-10.2225l-94.1818 -0.0177167 0.05315 -269.967 -144.604 -0.124017zm144.621 594.713l-0.1063 -203.122 79.0872 0.1063c56.9945,-0.05315 95.1385,3.79137 114.29,11.1615 19.1517,7.5473 34.1932,19.1872 45.2307,35.2562 10.9135,15.8919 16.3348,34.4058 16.2993,55.5063 -0.0708667,26.1498 -7.68904,47.6224 -22.8722,64.471 -15.3604,16.9903 -34.7247,27.514 -58.1284,31.766 -17.2915,3.38388 -51.9807,4.92524 -104.103,4.97839l-69.6974 -0.124017z"
           id="path3451-0" />
      </glyph>
    </font>
    <style
       type="text/css"
       id="style3453-6">
   
    .fil0 {fill:#1F1A17}
    .fil2 {fill:#969594}
    .fil3 {fill:#C2C1C1}
    .fil1 {fill:white}
   
  </style>
    <style
       type="text/css"
       id="style3455-1">
   
    @font-face { font-family:&quot;Arial&quot;;src:url(&quot;#FontID0&quot;) format(svg)}
    .str5 {stroke:#1F1A17;stroke-width:0.0762}
    .str1 {stroke:#1F1A17;stroke-width:0.0762;stroke-linecap:round;stroke-linejoin:round}
    .str0 {stroke-width:0.6672;stroke-linecap:round;stroke-linejoin:round}
    .str2 {stroke-width:0.7411;stroke-linecap:round;stroke-linejoin:round}
    .str3 {stroke-width:0.7414;stroke-linecap:round;stroke-linejoin:round}
    .str4 {stroke-width:13.5001}
    .fil5 {fill:none;fill-rule:nonzero}
    .fil0 {fill:#1F1A17}
    .fil3 {fill:#72706F}
    .fil4 {fill:#AAA9A9}
    .fil2 {fill:white}
    .fil1 {fill:#1F1A17;fill-rule:nonzero}
    .fnt3 {font-weight:bold;font-size:5.6444;font-family:'Arial'}
    .fnt2 {font-weight:bold;font-size:102.784;font-family:'Arial'}
    .fnt1 {font-weight:bold;font-size:102.817;font-family:'Arial'}
    .fnt0 {font-weight:bold;font-size:114.204;font-family:'Arial'}
   
  </style>
    <font
       style="font-style:normal;font-variant:normal;font-weight:700;stroke-width:0.66720003;stroke-linecap:round;stroke-linejoin:round"
       vert-adv-y="90"
       vert-origin-y="90"
       vert-origin-x="45"
       horiz-adv-x="90"
       horiz-origin-y="0"
       horiz-origin-x="0"
       id="font3457-2"
       font-variant="normal"
       class="str0"
       font-style="normal"
       font-weight="700">
      <font-face
         font-family="Arial"
         id="font-face3459-7" />
      <missing-glyph
         id="missing-glyph3461-4">
        <path
           d="M0 0z"
           id="path3463-1" />
      </missing-glyph>
      <glyph
         unicode=" "
         horiz-adv-x="277"
         id="glyph3465-5" />
      <glyph
         unicode=","
         horiz-adv-x="277"
         id="glyph3467-9">
        <path
           d="M68.3336 137.166l137.166 0 0 -98.1661c0,-39.6666 -3.3335,-70.9999 -10.1669,-93.9999 -6.83336,-22.8336 -19.8329,-43.5001 -38.833,-61.6666 -19.0001,-18.3338 -43.1665,-32.6669 -72.4998,-43.0001l-26.8335 56.6659c27.6662,9.1669 47.3336,21.6673 58.9995,37.5003 11.834,16.0003 18.0002,37.833 18.6674,65.5001l-66.5001 0 0 137.166z"
           id="path3469-1" />
      </glyph>
      <glyph
         unicode="”"
         horiz-adv-x="500"
         id="glyph3471-4">
        <path
           d="M293 715.833l137.166 0 0 -98.667c0,-39.6666 -3.49987,-70.9999 -10.4996,-93.6663 -7.00061,-22.8336 -20.0001,-43.5001 -39.0002,-61.833 -19.1665,-18.3338 -43.1665,-32.8332 -71.9999,-43.1673l-26.9998 57.1668c27.4998,9.00053 46.9999,21.6673 58.8331,38.0003 11.9995,16.333 18.0002,38.0003 18.3329,65.0001l-65.8328 0 0 137.166zm-230.5 0l137.166 0 0 -98.667c0,-39.6666 -3.3335,-70.9999 -10.1669,-93.6663 -6.83336,-22.8336 -19.8329,-43.5001 -38.833,-61.833 -19.0001,-18.3338 -43.1665,-32.8332 -72.4998,-43.1673l-26.8335 57.1668c27.6662,9.00053 47.3336,21.6673 59.0004,38.0003 11.6659,16.333 17.9993,38.0003 18.4993,65.0001l-66.3328 0 0 137.166z"
           id="path3473-1" />
      </glyph>
      <glyph
         unicode="“"
         horiz-adv-x="500"
         id="glyph3475-9">
        <path
           d="M201.666 425.833l-137.166 0 0 98.167c0,39.6666 3.49987,70.9999 10.4996,93.9999 7.00061,22.8336 19.8337,43.5001 38.8339,61.6666 18.8329,18.3338 42.8329,32.5005 72.1662,43.0001l26.8335 -56.6668c-27.3334,-9.16602 -46.8336,-21.8328 -58.8331,-37.9994 -11.8332,-16.3339 -18.1666,-38.0003 -18.6665,-65.0001l66.3328 0 0 -137.167zm229 0l-137.166 0 0 98.167c0,40.0002 3.49987,71.3335 10.4996,94.1671 7.00061,22.8327 20.0001,43.3328 39.0002,61.4994 19.0001,18.3338 43.0001,32.5005 71.9999,43.0001l26.8335 -56.6668c-27.3334,-9.16602 -46.8336,-21.8328 -58.8331,-37.9994 -11.8332,-16.3339 -18.1666,-38.0003 -18.6665,-65.0001l66.3328 0 0 -137.167z"
           id="path3477-0" />
      </glyph>
      <glyph
         unicode="L"
         horiz-adv-x="610"
         id="glyph3479-1">
        <path
           d="M76.6069 0.0354333l0.0177167 709.712 144.515 0.141733 0.0885834 -589.327 359.276 0 -0.141733 -120.615 -503.756 0.0885834z"
           id="path3481-9" />
      </glyph>
      <glyph
         unicode="E"
         horiz-adv-x="666"
         id="glyph3483-7">
        <path
           d="M72.6915 -0.0354333l-0.0354333 715.754 530.792 0.0354333 0.05315 -121.164 -386.224 0.0177167 -0.05315 -158.582 359.383 0.05315 -0.0354333 -120.633 -359.383 -0.0708667 0.1063 -194.742 399.794 0.0354333 -0.0354333 -120.651 -544.363 -0.05315z"
           id="path3485-4" />
      </glyph>
      <glyph
         unicode="F"
         horiz-adv-x="610"
         id="glyph3487-4">
        <path
           d="M73.6665 0l0 715.833 490.833 0 0 -121.166 -346.166 0 0 -169.333 298.833 0 0 -121.167 -298.833 0 0 -304.166 -144.667 0z"
           id="path3489-1" />
      </glyph>
      <glyph
         unicode="N"
         horiz-adv-x="722"
         id="glyph3491-7">
        <path
           d="M74.2506 0.0708667l-0.0177167 715.754 140.6 -0.0177167 292.963 -478.084 -0.0177167 478.12 134.222 -0.0354333 0.0177167 -715.754 -144.958 -0.0177167 -288.622 466.728 0.0354333 -466.728 -134.222 0.0354333z"
           id="path3493-5" />
      </glyph>
      <glyph
         unicode="O"
         horiz-adv-x="777"
         id="glyph3495-9">
        <path
           d="M43.4059 353.465c0.05315,72.8864 11.0021,134.151 32.7936,183.669 16.2816,36.4964 38.4098,69.095 66.5261,98.0972 28.2581,28.8959 59.0674,50.4394 92.6051,64.5064 44.6106,18.886 96.0952,28.2049 154.259,28.2581 105.556,-0.0354333 189.976,-32.6695 253.295,-98.1504 63.1954,-65.3745 94.8551,-156.35 94.8728,-272.819 0.0708667,-115.743 -31.4648,-206.063 -94.235,-271.402 -62.6993,-65.1796 -146.871,-97.8315 -251.913,-97.9023 -106.53,0.0354333 -191.021,32.5278 -253.862,97.5126 -62.8588,64.9848 -94.3413,154.295 -94.3413,268.23zm149.015 4.96067c-0.0885834,-81.0361 18.7797,-142.531 56.0556,-184.377 37.4885,-41.7759 84.9869,-62.7347 142.548,-62.6993 57.7209,-0.0708667 105.007,20.7108 142.017,62.2387 36.7798,41.4747 55.3823,103.802 55.3115,186.875 0,81.851 -17.9647,143.204 -53.8764,183.456 -36.0534,40.3232 -83.7467,60.6087 -143.399,60.6796 -59.5812,-0.15945 -107.593,-20.5159 -144.037,-61.4237 -36.4432,-40.9078 -54.7445,-102.438 -54.6205,-184.749z"
           id="path3497-4" />
      </glyph>
      <glyph
         unicode="H"
         horiz-adv-x="722"
         id="glyph3499-8">
        <path
           d="M73.1699 0.05315l0.141733 715.399 144.391 0.0885834 -0.05315 -281.731 283.095 0.124017 -0.05315 281.518 144.55 0.141733 -0.0708667 -715.559 -144.391 -0.0708667 0.0177167 312.947 -283.095 -0.124017 -0.0708667 -312.806 -144.462 0.0708667z"
           id="path3501-1" />
      </glyph>
      <glyph
         unicode="I"
         horiz-adv-x="277"
         id="glyph3503-3">
        <path
           d="M68.3336 0l0 715.833 144.5 0 0 -715.833 -144.5 0z"
           id="path3505-7" />
      </glyph>
      <glyph
         unicode="A"
         horiz-adv-x="722"
         id="glyph3507-8">
        <path
           d="M718.163 0.05315l-157.218 -0.124017 -62.469 162.604 -286.124 0 -59.032 -162.533 -153.32 0 278.843 715.825 152.806 -0.1063 286.514 -715.665zm-266.016 283.112l-98.6642 265.644 -96.733 -265.626 195.397 -0.0177167z"
           id="path3509-0" />
      </glyph>
      <glyph
         unicode="Z"
         horiz-adv-x="610"
         id="glyph3511-0">
        <path
           d="M10.667 0l0 130.334 376 464.333 -333.5 0 0 121.166 523.999 0 0 -112.333 -392.166 -482.833 407.333 0 0 -120.667 -581.666 0z"
           id="path3513-3" />
      </glyph>
      <glyph
         unicode="U"
         horiz-adv-x="722"
         id="glyph3515-5">
        <path
           d="M71.8332 715.833l144.5 0 0 -387.667c0,-61.4993 1.83335,-101.499 5.33373,-119.667 6.16627,-29.3326 21.0003,-52.8335 44.1666,-70.4997 23.3336,-17.8336 55.1667,-26.6667 95.5004,-26.6667 40.9999,0 71.9995,8.33322 92.8325,25.1669 20.834,16.6664 33.3339,37.3332 37.5005,61.6666 4.33292,24.4997 6.33356,64.9997 6.33356,121.666l0 396 144.5 0 0 -376c0,-86 -3.83398,-146.667 -11.6673,-182.167 -7.8333,-35.4998 -22.1665,-65.3333 -43.1658,-89.834 -21.0003,-24.3325 -49.1668,-43.833 -84.1667,-58.3325 -35.1672,-14.5005 -81.1672,-21.6666 -137.834,-21.6666 -68.3338,0 -120.166,7.8333 -155.5,23.6662 -35.3335,15.8329 -63.1664,36.3333 -83.6668,61.5003 -20.5004,25.166 -34.0001,51.6664 -40.5,79.3329 -9.50034,40.9999 -14.1669,101.5 -14.1669,181.667l0 381.833z"
           id="path3517-1" />
      </glyph>
      <glyph
         unicode="Y"
         horiz-adv-x="666"
         id="glyph3519-9">
        <path
           d="M260.667 0l0 301.333 -262.167 414.5 169.5 0 168.501 -283.167 165 283.167 166.5 0 -263.167 -415.5 0 -300.333 -144.166 0z"
           id="path3521-9" />
      </glyph>
      <glyph
         unicode="R"
         horiz-adv-x="722"
         id="glyph3523-5">
        <path
           d="M73.1666 0l0 715.833 304.334 0c76.4997,0 132,-6.49987 166.666,-19.3333 34.6663,-12.8334 62.5001,-35.6661 83.3332,-68.5001 20.833,-32.9993 31.1669,-70.4997 31.1669,-112.833 0,-53.667 -15.8329,-98.1663 -47.3334,-133.167 -31.4995,-34.8326 -78.833,-56.9991 -141.667,-65.9995 31.3332,-18.3335 57.1664,-38.333 77.5005,-60.1669 20.3331,-21.8329 47.6661,-60.4995 82.1661,-116.166l87.4998 -139.667 -172.833 0 -104.501 155.834c-37.1659,55.6666 -62.4991,90.6666 -76.1661,105.166 -13.6669,14.5005 -28.1664,24.3334 -43.5004,29.8335 -15.333,5.33373 -39.5001,8.00059 -72.833,8.00059l-29.1663 0 0 -298.834 -144.667 0zm144.667 413.166l106.833 0c69.3336,0 112.667,2.83318 129.999,8.66682 17.1673,5.83364 30.667,16.0002 40.5,30.3334 9.66762,14.3332 14.6668,32.1667 14.6668,53.667 0,24.1661 -6.49987,43.4994 -19.3333,58.3335 -12.8334,14.8331 -30.9996,24.1661 -54.4995,28.1664 -11.6663,1.49975 -46.8335,2.33326 -105.5,2.33326l-112.667 0 0 -181.5z"
           id="path3525-9" />
      </glyph>
      <glyph
         unicode="T"
         horiz-adv-x="610"
         id="glyph3527-0">
        <path
           d="M233.825 0.0708667l0.0354333 594.642 -212.458 -0.1063 0.15945 121.164 568.617 -0.0708667 0 -121.005 -211.785 -0.0708667 -0.0354333 -594.66 -144.533 0.1063z"
           id="path3529-8" />
      </glyph>
      <glyph
         unicode="P"
         horiz-adv-x="666"
         id="glyph3531-5">
        <path
           d="M72.7447 -0.0708667l0 715.931 231.947 -0.0885834c87.8038,0.0177167 145.153,-3.5079 171.887,-10.754 40.9964,-10.6123 75.2959,-33.9806 103.04,-69.9454 27.5849,-35.9826 41.5279,-82.4534 41.4747,-139.43 -0.0708667,-43.9196 -7.91935,-80.9475 -23.8644,-110.942 -15.9804,-29.8349 -36.2838,-53.4158 -60.7859,-70.5655 -24.697,-17.008 -49.6421,-28.3467 -75.0478,-33.8743 -34.4766,-6.8032 -84.3845,-10.2048 -149.919,-10.2225l-94.1818 -0.0177167 0.05315 -269.967 -144.604 -0.124017zm144.621 594.713l-0.1063 -203.122 79.0872 0.1063c56.9945,-0.05315 95.1385,3.79137 114.29,11.1615 19.1517,7.5473 34.1932,19.1872 45.2307,35.2562 10.9135,15.8919 16.3348,34.4058 16.2993,55.5063 -0.0708667,26.1498 -7.68904,47.6224 -22.8722,64.471 -15.3604,16.9903 -34.7247,27.514 -58.1284,31.766 -17.2915,3.38388 -51.9807,4.92524 -104.103,4.97839l-69.6974 -0.124017z"
           id="path3533-5" />
      </glyph>
    </font>
    <style
       type="text/css"
       id="style3535-7">
   
    @font-face { font-family:&quot;Arial Black&quot;;src:url(&quot;#FontID0&quot;) format(svg)}
    .str1 {stroke:#1F1A17;stroke-width:0.0762}
    .str0 {stroke:#838281;stroke-width:0.0762}
    .fil0 {fill:#1F1A17}
    .fil3 {fill:#838281}
    .fil2 {fill:#131516}
    .fil1 {fill:white}
    .fnt0 {font-weight:normal;font-size:28.2893;font-family:'Arial Black'}
   
  </style>
    <font
       style="font-style:normal;font-variant:normal;font-weight:400"
       vert-adv-y="90"
       vert-origin-y="90"
       vert-origin-x="45"
       horiz-adv-x="90"
       horiz-origin-y="0"
       horiz-origin-x="0"
       id="font3537-0"
       font-variant="normal"
       font-style="normal"
       font-weight="400">
      <font-face
         font-family="Arial Black"
         id="font-face3539-1" />
      <missing-glyph
         id="missing-glyph3541-4">
        <path
           d="M0 0z"
           id="path3543-1" />
      </missing-glyph>
      <glyph
         unicode=" "
         horiz-adv-x="363"
         id="glyph3545-7" />
      <glyph
         unicode="E"
         horiz-adv-x="786"
         id="glyph3547-5">
        <path
           d="M79.1748 779.754l645.788 -0.0424189 0.00706981 -166.409 -404.227 0.0459538 -0.0212094 -124.001 374.976 0.0636283 0.00706981 -159.064 -374.979 -0.0636283 -0.0353491 -153.648 415.949 -0.169675 -0.0989774 -176.455 -657.277 -0.113117 -0.0883726 779.857z"
           id="path3549-4" />
      </glyph>
      <glyph
         unicode="I"
         horiz-adv-x="423"
         id="glyph3551-3">
        <path
           d="M89.3271 779.726l241.455 -0.127257 0.0106047 -779.592 -241.537 -0.0353491 0.0706981 779.754z"
           id="path3553-4" />
      </glyph>
      <glyph
         unicode="G"
         horiz-adv-x="907"
         id="glyph3555-0">
        <path
           d="M471.786 282.418l0.144931 162.383 372.24 -0.0530236 0.038884 -332.419c-71.2884,-48.6368 -134.305,-81.7023 -189.057,-99.3839 -54.9254,-17.4872 -119.763,-26.275 -195.038,-26.1477 -92.565,-0.0600934 -167.933,15.7127 -226.287,47.3182 -58.3648,31.4288 -103.537,78.5315 -135.726,140.954 -32.0086,62.4158 -48.0782,133.998 -48.0217,214.915 -0.0848377,85.1099 17.4306,159.113 52.5499,222.013 35.1228,62.8966 86.5486,110.756 154.267,143.393 52.9706,25.2286 123.997,37.6927 213.289,37.7387 86.1951,0.0282792 150.711,-7.7167 193.349,-23.4081 42.8324,-15.5182 78.2946,-39.7429 106.401,-72.4938 28.2792,-32.9418 49.3826,-74.4204 63.653,-124.81l-232.392 -41.468c-9.73513,29.4246 -25.8296,51.9066 -48.8383,67.4813 -22.8249,15.5607 -52.0515,23.4576 -87.5101,23.4965 -52.7443,-0.144931 -94.8026,-18.4911 -126.186,-55.2152 -31.3758,-36.5439 -47.1486,-94.6365 -47.1309,-174.105 -0.0565585,-84.3747 15.8753,-144.673 47.6187,-180.888 31.7435,-36.2151 75.9015,-54.1689 132.637,-54.2325 27.0951,0.0353491 52.762,3.96263 77.1635,11.5945 24.4156,7.81214 52.5782,21.2483 84.1095,39.9621l0.0318141 73.4659 -161.305 -0.0919075z"
           id="path3557-8" />
      </glyph>
      <glyph
         unicode="O"
         horiz-adv-x="907"
         id="glyph3559-3">
        <path
           d="M49.5735 389.331c-0.0989774,127.426 35.3278,226.344 106.259,297.406 70.889,70.8112 169.721,106.252 296.239,106.365 129.749,-0.0106047 229.801,-34.84 300.011,-104.594 70.3552,-69.6482 105.344,-167.236 105.361,-292.701 -0.00353491,-91.1369 -15.2319,-165.95 -46.0492,-224.254 -30.5628,-58.3436 -75.0566,-103.693 -132.98,-136.122 -57.9194,-32.4292 -130.198,-48.8029 -216.647,-48.7605 -88.0156,0.0282792 -160.813,14.0265 -218.397,41.9982 -57.6932,28.1202 -104.389,72.31 -140.155,132.969 -35.7662,60.659 -53.6457,136.557 -53.6422,227.694zm240.886 -0.968564c0.00353491,-78.786 14.5815,-135.313 43.8434,-169.718 29.2655,-34.4088 69.1781,-51.652 119.377,-51.5425 51.8712,-0.0247443 91.9747,16.7661 120.201,50.5209 28.3358,33.6028 42.585,94.0108 42.638,181.372 -0.0848377,73.3387 -14.8537,127.03 -44.3419,160.824 -29.7462,33.8326 -69.9522,50.8638 -120.66,50.8319 -48.4918,0.0106047 -87.6197,-17.1938 -116.984,-51.546 -29.5094,-34.4583 -44.1015,-91.3031 -44.0732,-170.743z"
           id="path3561-0" />
      </glyph>
      <glyph
         unicode="R"
         horiz-adv-x="847"
         id="glyph3563-9">
        <path
           d="M82.9395 0.0212094l0.0706981 779.641 401.484 0.116652c74.6077,-0.0459538 131.325,-6.48655 170.778,-19.1203 39.4001,-12.807 71.1541,-36.4625 95.2197,-71.1329 24.1116,-34.4971 36.1974,-76.6898 36.1727,-126.178 0.0600934,-43.2778 -9.15541,-80.6878 -27.5935,-112.049 -18.4416,-31.3617 -43.8576,-56.7564 -76.1313,-76.407 -20.5166,-12.2555 -48.8135,-22.6552 -84.5655,-30.7254 28.8024,-9.58313 49.6725,-19.1557 62.7835,-28.7741 8.77364,-6.29213 21.6584,-20.0005 38.5234,-40.8953 16.8686,-20.8948 28.0778,-37.1448 33.7301,-48.3999l116.525 -226.107 -272.22 0.0353491 -128.713 238.292c-16.4833,30.7961 -30.9552,50.8178 -43.7692,60.157 -17.3493,11.9657 -36.9751,17.9715 -58.8774,18.0174l-21.3756 -0.102512 -0.0530236 -316.424 -241.989 0.0565585zm241.982 463.737l101.674 0.127257c10.9264,-0.109582 32.157,3.43946 63.8687,10.5906 15.8434,3.20262 28.9473,11.347 39.1349,24.4863 9.9649,13.0085 15.0693,28.1697 15.034,45.1832 0.0247443,25.119 -8.03837,44.4338 -24.0161,57.8947 -15.7515,13.5846 -45.7523,20.2974 -89.7795,20.2656l-105.814 -0.074233 -0.102512 -158.473z"
           id="path3565-4" />
      </glyph>
      <glyph
         unicode="S"
         horiz-adv-x="786"
         id="glyph3567-9">
        <path
           d="M37.7599 258.055l229.338 14.3694c4.99482,-37.3463 15.0233,-65.7316 30.333,-85.2407 24.7302,-31.549 60.1287,-47.3006 106.358,-47.1839 34.285,-0.0424189 60.8251,7.92526 79.546,24.0692 18.4805,16.2323 27.8445,34.8224 27.9364,56.106 -0.0141396,20.2303 -8.86201,38.3467 -26.7097,54.2714 -17.6781,15.999 -58.7819,31.0966 -123.308,45.2892 -105.786,23.6096 -181.047,55.2364 -226.114,94.7355 -45.3953,39.3435 -68.1565,89.4437 -68.1176,150.375 -0.0424189,40.054 11.7182,77.9977 34.7905,113.601 23.2349,35.6813 58.2835,63.6495 104.828,84.1484 46.6219,20.3398 110.597,30.5345 191.758,30.5098 99.7692,0.0353491 175.713,-18.4487 227.913,-55.6253 52.3626,-37.0953 83.4167,-95.9515 93.4735,-176.82l-227.199 -13.3725c-6.02348,35.2607 -18.7315,60.7933 -37.9578,76.6756 -19.4667,15.9672 -46.0598,24.0055 -80.101,23.9596 -28.0318,-0.0459538 -49.1529,-5.88562 -63.3738,-17.929 -14.1326,-11.7995 -21.1918,-26.3103 -21.3296,-43.2071 -0.0141396,-12.4287 6.01641,-23.645 17.6887,-33.6311 11.34,-10.1416 38.2901,-19.8131 80.868,-28.6151 105.16,-22.6941 180.817,-45.724 226.329,-68.9837 45.5084,-23.2597 78.7648,-52.0373 99.4334,-86.4779 20.7605,-34.2037 31.1602,-72.8332 31.1354,-115.326 -0.0706981,-50.125 -13.9169,-96.054 -41.4786,-138.36 -27.6359,-42.1431 -66.3714,-74.233 -115.956,-95.9515 -49.7467,-21.7962 -112.361,-32.758 -187.919,-32.7262 -132.428,-0.0353491 -224.343,25.6281 -275.355,76.5802 -51.0865,51.1183 -80.108,115.931 -86.8102,194.759z"
           id="path3569-5" />
      </glyph>
    </font>
    <style
       type="text/css"
       id="style3571-5">
   
    @font-face { font-family:&quot;Arial Black&quot;;src:url(&quot;#FontID0&quot;) format(svg)}
    .fil0 {fill:#1F1A17}
    .fnt0 {font-weight:normal;font-size:28.2893;font-family:'Arial Black'}
   
  </style>
    <font
       style="font-style:normal;font-variant:normal;font-weight:400"
       vert-adv-y="90"
       vert-origin-y="90"
       vert-origin-x="45"
       horiz-adv-x="90"
       horiz-origin-y="0"
       horiz-origin-x="0"
       id="font3573-4"
       font-variant="normal"
       font-style="normal"
       font-weight="400">
      <font-face
         font-family="Arial Black"
         id="font-face3575-7" />
      <missing-glyph
         id="missing-glyph3577-6">
        <path
           d="M0 0z"
           id="path3579-8" />
      </missing-glyph>
      <glyph
         unicode=" "
         horiz-adv-x="363"
         id="glyph3581-5" />
      <glyph
         unicode="E"
         horiz-adv-x="786"
         id="glyph3583-4">
        <path
           d="M79.1748 779.754l645.788 -0.0424189 0.00706981 -166.409 -404.227 0.0459538 -0.0212094 -124.001 374.976 0.0636283 0.00706981 -159.064 -374.979 -0.0636283 -0.0353491 -153.648 415.949 -0.169675 -0.0989774 -176.455 -657.277 -0.113117 -0.0883726 779.857z"
           id="path3585-1" />
      </glyph>
      <glyph
         unicode="I"
         horiz-adv-x="423"
         id="glyph3587-4">
        <path
           d="M89.3271 779.726l241.455 -0.127257 0.0106047 -779.592 -241.537 -0.0353491 0.0706981 779.754z"
           id="path3589-2" />
      </glyph>
      </font>
</defs>
</svg>
